<?xml version="1.0" encoding="UTF-8" standalone="no"?>
<svg
   xmlns:dc="http://purl.org/dc/elements/1.1/"
   xmlns:cc="http://creativecommons.org/ns#"
   xmlns:rdf="http://www.w3.org/1999/02/22-rdf-syntax-ns#"
   xmlns:svg="http://www.w3.org/2000/svg"
   xmlns="http://www.w3.org/2000/svg"
   xmlns:sodipodi="http://sodipodi.sourceforge.net/DTD/sodipodi-0.dtd"
   xmlns:inkscape="http://www.inkscape.org/namespaces/inkscape"
   version="1.0"
   viewBox="0 0 128.84986 136.52172"
   xml:space="preserve"
   id="svg4638"
   sodipodi:docname="Icon.svg"
   inkscape:version="1.0.1 (3bc2e813f5, 2020-09-07)"
   width="128.84985"
   height="136.52173"><metadata
     id="metadata4644"><rdf:RDF><cc:Work
         rdf:about=""><dc:format>image/svg+xml</dc:format><dc:type
           rdf:resource="http://purl.org/dc/dcmitype/StillImage" /><dc:title></dc:title></cc:Work></rdf:RDF></metadata><defs
     id="defs4642" /><sodipodi:namedview
     pagecolor="#ffffff"
     bordercolor="#666666"
     borderopacity="1"
     objecttolerance="10"
     gridtolerance="10"
     guidetolerance="10"
     inkscape:pageopacity="0"
     inkscape:pageshadow="2"
     inkscape:window-width="1920"
     inkscape:window-height="1017"
     id="namedview4640"
     showgrid="false"
     inkscape:zoom="2.2836716"
     inkscape:cx="42.060849"
     inkscape:cy="68.257734"
     inkscape:window-x="1912"
     inkscape:window-y="-8"
     inkscape:window-maximized="1"
     inkscape:current-layer="svg4638"
     fit-margin-top="0"
     fit-margin-left="0"
     fit-margin-right="0"
     fit-margin-bottom="0" /><font
     horiz-adv-x="2048"
     id="font4616"
     horiz-origin-x="0"
     horiz-origin-y="0"
     vert-origin-x="512"
     vert-origin-y="768"
     vert-adv-y="1024"><font-face
       font-family="Neuropolitical"
       underline-position="-133"
       underline-thickness="20"
       units-per-em="2048"
       id="font-face3570" /><glyph
       horiz-adv-x="755"
       id="glyph3572" /><glyph
       d="M384 316H102v985h282m28-1156c0-42-18-76-55-101-33-23-71-34-115-34-45 0-83 11-115 34-35 26-52 61-52 104s17 78 52 103c32 23 70 35 115 35 44 0 82-12 115-37 37-27 55-61 55-104z"
       horiz-adv-x="465"
       unicode="!"
       id="glyph3574" /><glyph
       d="M747 1273 644 766H401l63 507m-77 0L284 766H41l63 507z"
       horiz-adv-x="779"
       unicode="&quot;"
       id="glyph3576" /><glyph
       d="m1396 1002-88-217h-250l-64-149h260l-88-217H901l-90-208H541l90 208H401l-90-208H41l90 208H-75l88 217h211l64 149H67l88 217h226l88 203h270l-88-203h230l88 203h270l-88-203M788 785H558l-64-149h230z"
       horiz-adv-x="1338"
       unicode="#"
       id="glyph3578" /><glyph
       d="M1506 354c0-82-12-145-36-188C1410 56 1235 1 945 1v-138H663V1H62v243h601v282H560c-123 0-230 23-322 69C121 653 63 737 63 847v92c0 144 70 242 209 293 86 32 216 48 391 48v112h282V773c143 0 263-21 360-62 133-57 200-146 200-269 0-9 0-24 1-44v-44m-283-15v85c0 68-93 102-278 102V244h38c160 0 240 32 240 95M663 773v267h-45c-182 0-273-33-273-99v-75c0-62 101-93 303-93z"
       horiz-adv-x="1543"
       unicode="$"
       id="glyph3580" /><glyph
       d="M1973 223c0-103-61-174-182-211-71-21-174-31-310-31-321 0-481 79-481 236v157c0 25 4 49 11 72L564 9H137c65 63 298 285 697 666-81-26-189-39-325-39-311 0-467 80-467 240v157c0 103 59 173 176 210 68 21 169 32 303 32 137 0 240-11 311-32 122-37 183-107 183-210V882c0-13-1-25-3-37l469 446h392c-9-11-37-40-82-87-129-132-344-342-645-630 71 28 182 42 333 42 139 0 242-10 311-31 122-37 183-107 183-211m-325-91v22c0 43-34 64-101 64-11 0-26 0-47 1s-37 1-48 1c-103 0-154-22-154-66 0-41 19-67 56-80 20-7 55-10 106-10 125 0 188 23 188 68M691 942c0 59-47 89-141 89-62 0-103-1-124-4-57-9-86-30-86-62 0-41 22-68 66-81 22-7 60-10 115-10 113 0 170 23 170 68z"
       horiz-adv-x="2008"
       unicode="%"
       id="glyph3582" /><glyph
       d="M1992 9h-468l-109 67c-93-45-219-67-378-67H612C484 9 369 32 266 77 132 136 65 221 65 332v83c0 78 28 141 85 188 40 33 104 65 192 94-85 74-132 132-143 175-3 11-4 26-4 45 0 93 14 161 41 204 69 111 209 166 420 166h235c123 0 223-22 302-67 99-55 148-140 148-253 0-41-2-71-5-92-15-86-137-171-365-255l374-212 1 201h281c0-204-1-325-2-362 37-21 159-101 367-238m-934 914v59c0 43-57 64-171 64H623c-98 0-147-20-147-60 0-5 0-13-1-22-1-10-1-18-1-23 0-25 9-44 27-55l165-98 262 73c87 25 130 45 130 62m48-671L626 525c-47-14-99-32-155-54-82-33-123-58-123-74v-60c0-27 40-50 120-67 59-12 112-18 157-18 33 0 83 0 149-1s116-1 149-1c69 0 130 1 183 2z"
       horiz-adv-x="1922"
       unicode="&amp;"
       id="glyph3584" /><glyph
       d="M417 1273 314 766H71l63 507z"
       horiz-adv-x="463"
       unicode="'"
       id="glyph3586" /><glyph
       d="M550 9H430C326 9 238 47 165 122S55 286 55 391v516c0 111 37 203 110 274s166 106 278 106h107v-201H443c-33 0-60-23-81-68-17-37-25-74-25-111V391c0-36 9-72 26-108 21-43 48-64 80-64h107z"
       horiz-adv-x="583"
       unicode="("
       id="glyph3588" /><glyph
       d="M556 391c0-105-36-194-109-269S286 9 181 9H61v210h107c33 0 59 21 80 64 17 36 26 72 26 108v516c0 37-8 74-25 111-21 45-48 68-81 68H61v201h107c113 0 206-35 279-106s109-163 109-274z"
       horiz-adv-x="608"
       unicode=")"
       id="glyph3590" /><glyph
       d="M959 726 823 566 604 683l18-198H365l20 192-207-111L42 726l254 99-240 94 136 160 192-104-19 175h257l-17-181 204 110 136-160-241-94z"
       horiz-adv-x="988"
       unicode="*"
       id="glyph3592" /><glyph
       d="M810 528H552V334H277v194H25v238h252v185h275V766h258z"
       horiz-adv-x="845"
       unicode="+"
       id="glyph3594" /><glyph
       d="M407 369 304-138H61l63 507z"
       horiz-adv-x="467"
       unicode=","
       id="glyph3596" /><glyph
       d="M704 434H48v229h656z"
       horiz-adv-x="746"
       unicode="-"
       id="glyph3598" /><glyph
       d="M377 145c0-41-19-74-56-100-33-23-71-35-114-35-45 0-84 11-115 34-35 25-53 60-53 104 0 43 17 78 52 103 32 23 70 35 115 35 43 0 82-12 115-37 37-27 56-62 56-104z"
       horiz-adv-x="401"
       unicode="."
       id="glyph3600" /><glyph
       d="M1658 1294 343 3H-41l1328 1291z"
       horiz-adv-x="1587"
       unicode="/"
       id="glyph3602" /><glyph
       d="M1593 359c0-238-198-357-593-357H654C257 2 58 110 58 327c0 65 1 164 2 296s1 231 1 297c0 240 198 360 593 360h346c395 0 593-120 593-359m-282-555v549c0 83-102 124-307 124H624c-188 0-282-42-282-125V364c0-79 103-119 309-119h394c177-1 266 40 266 121z"
       horiz-adv-x="1639"
       unicode="0"
       id="glyph3604" /><glyph
       d="M353 2H71v1292h282z"
       horiz-adv-x="426"
       unicode="1"
       id="glyph3606" /><glyph
       d="M1668 966c0-84-4-145-12-183-40-179-221-269-543-269H568c-159 0-238-28-238-85V245h1326V2H50v425c0 123 67 213 202 269 97 41 217 61 361 61h492c59 0 114 5 165 15 77 16 116 41 116 75v118c0 27-27 50-80 67-41 14-80 21-116 21H794v241h286c102 0 181-5 238-15 94-16 173-48 236-97 76-58 114-130 114-216z"
       horiz-adv-x="1706"
       unicode="2"
       id="glyph3608" /><glyph
       d="M1702 356c0-131-62-226-187-286-94-45-214-67-360-67H82v243h1073c177 0 265 33 265 99v115c0 48-85 72-256 72H82v243l1121-1c145 0 217 27 217 80v125c0 47-88 71-265 71H843v244h301c159 0 280-16 363-48 130-50 195-141 195-274V868c0-111-35-181-106-211 55-26 89-69 101-128 3-17 5-75 5-173z"
       horiz-adv-x="1752"
       unicode="3"
       id="glyph3610" /><glyph
       d="M1771 3h-310v316H63v970h310V589h1088v700h310z"
       horiz-adv-x="1835"
       unicode="4"
       id="glyph3612" /><glyph
       d="M1705 339c0-224-193-336-578-336H59v243l1095-1c179 0 269 32 269 95v178c0 40-32 70-97 89-45 13-95 20-151 20H59v654h943v-241H338V868h832c134 0 250-25 348-75 125-63 187-154 187-274z"
       horiz-adv-x="1745"
       unicode="5"
       id="glyph3614" /><glyph
       d="M1733 338c0-119-61-209-184-268-94-45-208-68-343-68H617C398 2 246 44 161 129 92 197 58 273 58 358v582c0 145 85 243 256 296 101 31 245 47 434 47h230v-244H620c-187 0-280-32-280-97v-72h822c150 0 273-21 369-62 135-57 202-151 202-280m-280-187v183c0 38-39 66-116 85-53 13-109 19-170 19H340V359c0-40 39-71 116-92 54-15 109-22 165-22h585c51 0 100 6 147 18 67 18 100 44 100 78z"
       horiz-adv-x="1772"
       unicode="6"
       id="glyph3616" /><glyph
       d="M1674 1173c0-37-16-75-49-114L739 3H393l883 1050H61v241h1444c113 0 169-40 169-121z"
       horiz-adv-x="1706"
       unicode="7"
       id="glyph3618" /><glyph
       d="M1646 947c0-155-49-252-146-290 58-31 98-75 120-130 16-42 24-100 24-175 0-123-64-214-193-275-98-45-216-68-355-68H621C484 9 366 32 267 78 138 139 73 230 73 351c0 169 45 271 136 306-95 31-143 127-143 289 0 227 194 341 583 341h419c385 0 578-113 578-340m-280-89v89c0 66-90 99-271 99H623c-183 0-275-33-275-100v-88c0-52 77-78 232-78l509 1c185 0 277 26 277 77m-2-504v104c0 53-96 80-289 80H638c-57 0-111-4-162-13-82-14-123-36-123-67V352c0-33 38-60 113-79 56-14 108-21 155-21h475c179 0 268 34 268 102z"
       horiz-adv-x="1712"
       unicode="8"
       id="glyph3620" /><glyph
       d="M1650 346c0-149-86-249-259-300-96-29-243-43-440-43H793v240h250c218 0 327 40 327 120v52H644C263 415 73 529 73 756v192c0 117 62 205 185 264 95 46 209 69 341 69h496c146 0 267-23 364-70 127-61 191-157 191-287m-280-268v268c0 41-38 73-114 94-53 15-110 22-170 22H602c-55 0-104-6-148-17-67-17-100-43-100-78V760c0-39 39-68 116-86 51-12 108-18 170-18z"
       horiz-adv-x="1720"
       unicode="9"
       id="glyph3622" /><glyph
       d="M383 618c0-42-18-76-55-101-33-23-71-34-114-34-45 0-84 11-115 34-35 26-53 61-53 104s17 78 52 103c32 23 70 35 115 35 44 0 82-12 115-37 37-27 55-61 55-104m0-466c0-42-18-76-55-101-33-23-71-34-114-34-45 0-84 11-115 34-35 25-53 60-53 104 0 43 17 78 52 103 32 23 70 35 115 35 44 0 82-12 115-37 37-27 55-61 55-104z"
       horiz-adv-x="423"
       unicode=":"
       id="glyph3624" /><glyph
       d="M431 616c0-42-18-76-54-101-33-23-71-34-114-34-45 0-84 11-115 34-36 26-54 61-54 104s18 78 53 103c32 23 70 34 115 34 44 0 82-12 115-36 36-27 54-61 54-104m-34-247L294-138H51l63 507z"
       horiz-adv-x="472"
       unicode=";"
       id="glyph3626" /><glyph
       d="M1069 174 84 579c-28 11-42 33-42 65 0 33 14 56 42 67l985 410V920L390 645l679-278z"
       horiz-adv-x="1137"
       unicode="&lt;"
       id="glyph3628" /><glyph
       d="M792 617H135v230h657m0-526H135v230h657z"
       horiz-adv-x="911"
       unicode="="
       id="glyph3630" /><glyph
       d="M1077 644c0-32-14-54-42-65L50 174v193l679 278L50 920v201l985-410c28-11 42-34 42-67z"
       horiz-adv-x="1095"
       unicode="&gt;"
       id="glyph3632" /><glyph
       d="M1137 793c0-111-68-195-203-252-95-41-221-61-376-61-18 0-45 0-80 1s-62 1-80 1c-29 0-43-16-43-47V335H84v157c0 91 45 155 135 190 61 24 150 36 268 36 16 0 38 0 65-1h57c46 0 95 5 146 15 75 15 112 37 112 66v136c0 58-58 94-173 109-36 5-116 8-239 8v236h160c137 0 252-24 345-72 118-61 177-153 177-278M382 152c0-42-18-76-55-101-33-23-71-34-114-34-45 0-84 11-115 34-35 25-53 60-53 104 0 43 17 78 52 103 32 23 70 35 115 35 44 0 83-12 116-37 36-27 54-61 54-104z"
       horiz-adv-x="1184"
       unicode="?"
       id="glyph3634" /><glyph
       d="M1288 589c0-132-70-198-211-198H655c-79 0-149 16-208 49-73 41-109 98-109 171v46c0 91 42 154 127 189 59 24 145 36 258 36h70c31-1 51-1 61-1 1 50-47 75-144 75-17 0-41 0-74-1s-58-2-74-2v119c65 2 106 3 124 3 215 0 322-75 322-224V521c5-1 14-1 27-1 11-1 19-1 26-1 22 0 33 13 33 40v512c0 27-23 50-69 69-38 16-73 24-104 24H456c-47 0-90-6-127-18-53-17-80-44-80-79V393c0-49 51-80 152-93 27-3 94-5 201-5V135H455c-98 0-183 16-255 47-96 42-144 106-144 191v715c0 89 47 154 141 195 69 31 154 46 256 46h468c96 0 177-17 242-51 83-43 125-107 125-193M854 522v228H639c-97 0-145-25-145-74v-78c0-51 50-76 151-76z"
       horiz-adv-x="1351"
       unicode="@"
       id="glyph3636" /><glyph
       d="M1956-2h-317l-234 332H532L304-2H-28l843 1199c41 58 93 87 158 87s118-29 157-86m103-624L963 956 699 574z"
       horiz-adv-x="1909"
       unicode="A"
       id="glyph3638" /><glyph
       d="M1650 363c0-126-58-220-174-282-91-48-206-72-344-72H82v1278h1023c105 0 187-7 246-21 88-21 159-59 214-116 57-59 85-129 85-210 0-79-6-138-19-175-20-58-60-98-119-119 47-11 84-50 109-117 19-51 29-107 29-166m-283 487v100c0 64-80 96-240 96H369V764h785c142 0 213 29 213 86m-232-329H364V252h750c157 0 240 30 251 90 3 11 4 27 4 48 0 19-1 34-2 45-6 57-83 86-232 86z"
       horiz-adv-x="1714"
       unicode="B"
       id="glyph3640" /><glyph
       d="M1498 9H629C248 9 58 124 58 354v606c0 120 63 208 190 265 93 41 208 62 346 62h904v-241H565c-150 0-225-28-225-85V358c0-71 96-106 289-106h869z"
       horiz-adv-x="1537"
       unicode="C"
       id="glyph3642" /><glyph
       d="M1654 368c0-125-60-220-181-283-96-51-212-76-349-76H76v1278h1053c141 0 257-22 346-65 119-57 179-149 179-275m-280-578v577c0 36-34 63-101 81-46 13-96 19-150 19H358V252h761c59 0 111 7 156 21 66 20 99 52 99 96z"
       horiz-adv-x="1714"
       unicode="D"
       id="glyph3644" /><glyph
       d="M1493 9H589C457 9 343 32 247 77 124 137 62 226 62 343v604c0 121 64 212 192 271 98 46 216 69 354 69h287v-241H622c-187 0-280-33-280-99V764h1151V521H344V351c0-66 85-99 255-99h894z"
       horiz-adv-x="1535"
       unicode="E"
       id="glyph3646" /><glyph
       d="M1487 521H339V3H57v970c0 107 65 190 196 247 101 45 213 67 338 67h278v-241c-144 0-245-3-303-10-151-17-227-54-227-111V764h1148z"
       horiz-adv-x="1534"
       unicode="F"
       id="glyph3648" /><glyph
       d="M1626 349c0-120-58-210-173-270-90-47-201-70-334-70H615C474 9 355 30 260 73 131 130 66 221 66 345v610c0 119 66 208 198 266 98 44 216 66 353 66h313v-241H567c-146 0-219-30-219-91V346c0-63 90-94 270-94h501c38 0 81 7 130 21 63 18 95 41 95 68v429h282z"
       horiz-adv-x="1668"
       unicode="G"
       id="glyph3650" /><glyph
       d="M1649 3h-280v518H353V3L71 2v1292h282V764h1016v530h280z"
       horiz-adv-x="1722"
       unicode="H"
       id="glyph3652" /><glyph
       d="M339 2H57v1292h282z"
       horiz-adv-x="398"
       unicode="I"
       id="glyph3654" /><glyph
       d="M827 388c0-156-71-263-214-322C520 28 381 9 198 9H89v242h174c187 0 281 45 281 134v908h283z"
       horiz-adv-x="895"
       unicode="J"
       id="glyph3656" /><glyph
       d="M1244 3H855L353 492V3H76v1290h277V820l502 473h389L529 671z"
       horiz-adv-x="1282"
       unicode="K"
       id="glyph3658" /><glyph
       d="M1391 9H679C502 9 367 26 275 60 130 114 57 214 57 360v933h282V360c0-51 49-84 146-99 41-6 110-9 206-9h700z"
       horiz-adv-x="1433"
       unicode="L"
       id="glyph3660" /><glyph
       d="M2171 2h-282v819L1287 79c-43-53-98-80-164-80-67 0-123 27-166 80L344 826V3L62 2v1138c0 44 14 79 43 104 28 25 64 38 109 38 65 0 116-23 154-68l757-896 739 897c38 46 88 69 150 69 46 0 84-14 113-42 29-29 44-66 44-111z"
       horiz-adv-x="2214"
       unicode="M"
       id="glyph3662" /><glyph
       d="M1630 170c0-113-46-169-139-169-55 0-109 22-160 66L344 906V1L62 2v1132c0 109 45 163 135 163 61 0 119-24 176-73l974-828v901h283z"
       horiz-adv-x="1687"
       unicode="N"
       id="glyph3664" /><glyph
       d="M1591 366c0-238-198-357-595-357H650C495 9 367 31 266 74 127 134 57 231 57 365v562c0 240 198 360 593 360h346c175 0 307-18 394-54 134-55 201-157 201-306m-283-556v551c0 83-102 124-307 124H649c-207 0-310-41-310-124V371c0-79 103-119 310-119h353c204 0 306 40 306 119z"
       horiz-adv-x="1640"
       unicode="O"
       id="glyph3666" /><glyph
       d="M1632 797c0-132-63-228-189-287-93-44-214-66-363-66H339V3H57v1284h1033c130 0 244-19 341-58 134-53 201-134 201-243m-280-182v136c0 36-36 64-107 84-52 15-103 22-153 22H339V686h754c173 0 259 39 259 118z"
       horiz-adv-x="1683"
       unicode="P"
       id="glyph3668" /><glyph
       d="M1740-159h-389L1175 12H683C277 12 74 129 74 364v574c0 149 70 249 210 301 85 32 217 48 398 48h388c172 0 299-17 380-50 128-53 192-152 192-298V364c0-125-54-216-162-273m-121 267v583c0 70-110 105-329 105H628c-181 0-272-35-272-105V360c0-70 88-105 263-105l411 1c219 0 329 34 329 102z"
       horiz-adv-x="1700"
       unicode="Q"
       id="glyph3670" /><glyph
       d="M1639 1h-513L348 433V1H66v1286h1002c148 0 270-21 365-62 132-57 198-149 198-276V802c0-120-61-208-182-264-91-42-204-63-340-63H781m568 325v154c0 61-82 92-247 92H348V716h804c131 0 197 28 197 84z"
       horiz-adv-x="1680"
       unicode="R"
       id="glyph3672" /><glyph
       d="M1497 354c0-82-12-145-36-188C1401 56 1225 1 933 1H53v243h921c160 0 240 32 240 95v85c0 68-91 102-272 102H551c-123 0-230 23-322 69C112 653 54 737 54 847v92c0 145 70 242 210 293 86 32 217 48 393 48h193v-240H623c-191 0-287-33-287-99v-75c0-62 101-93 303-93h297c142 0 262-21 359-62 134-57 201-146 201-269v-44c1-20 1-35 1-44z"
       horiz-adv-x="1538"
       unicode="S"
       id="glyph3674" /><glyph
       d="M1458 1046H884V2H603v1044H31v241h1427z"
       horiz-adv-x="1482"
       unicode="T"
       id="glyph3676" /><glyph
       d="M1613 382c0-151-72-256-217-315-96-39-233-58-410-58H677C490 9 352 26 263 61 122 117 51 224 51 382v911h283V397c0-97 104-145 313-145l379-1c204 0 306 48 306 145v897h281z"
       horiz-adv-x="1666"
       unicode="U"
       id="glyph3678" /><glyph
       d="M1959 1292 1117 93c-41-58-94-87-159-87S841 35 802 92L-24 1292h316l677-958 659 958z"
       horiz-adv-x="1931"
       unicode="V"
       id="glyph3680" /><glyph
       d="M2480 1292 1922 116c-34-73-89-109-166-109-73 0-125 34-157 103l-358 764-369-766c-29-61-82-92-157-92-79 0-134 32-164 97L-1 1292l203 1c11 0 44 0 98-1l415-880 363 779c33 71 87 107 164 107 71 0 121-33 152-99l369-786 412 879z"
       horiz-adv-x="2450"
       unicode="W"
       id="glyph3682" /><glyph
       d="M1852 0h-390L896 484 330 0H-61l766 647-766 654h373l584-493 583 493h373l-765-654z"
       horiz-adv-x="1768"
       unicode="X"
       id="glyph3684" /><glyph
       d="m1825 1301-795-766V3H749v532l-802 766h383l559-536 564 536z"
       horiz-adv-x="1740"
       unicode="Y"
       id="glyph3686" /><glyph
       d="M1654 1261 475 243h995V0H244c-49 0-93 14-132 42-43 31-64 71-64 118 0 39 16 72 49 99l1167 1002z"
       horiz-adv-x="1678"
       unicode="Z"
       id="glyph3688" /><glyph
       d="M571 3H62v1278h509v-241H344V246h227z"
       horiz-adv-x="627"
       unicode="["
       id="glyph3690" /><glyph
       d="M1405 120c0-35-15-64-46-89s-64-38-100-38c-41 0-77 16-109 47L53 1101c-23 22-34 47-34 75 0 35 16 65 48 90 29 24 62 36 98 36 41 0 77-15 108-46L1371 195c23-22 34-47 34-75z"
       horiz-adv-x="1438"
       unicode="\"
       id="glyph3692" /><glyph
       d="M571 3H62v243h227v794H62v241h509z"
       horiz-adv-x="611"
       unicode="]"
       id="glyph3694" /><glyph
       d="M800 1180c0-25-10-45-31-62s-43-26-68-26c-27 0-55 11-82 32-4 3-26 24-65 63-19 19-64 61-133 124-43-45-112-109-205-192-21-17-44-25-69-25-26 0-50 8-71 23-23 17-35 38-35 63 0 20 9 39 26 56l266 267c25 25 55 38 88 38s62-13 87-38l267-267c17-17 25-35 25-56z"
       horiz-adv-x="842"
       unicode="^"
       id="glyph3696" /><glyph
       d="M1389-305H60v271h1329z"
       horiz-adv-x="1455"
       unicode="_"
       id="glyph3698" /><glyph
       d="M790 1000H560l-291 343h226z"
       horiz-adv-x="834"
       unicode="`"
       id="glyph3700" /><glyph
       d="M1513 327c0-212-154-318-462-318H535C420 9 317 32 226 77 112 134 55 214 55 317v122c0 109 54 192 163 247 85 44 189 66 310 66h692c0 32-56 48-169 48H756v228h295c125 0 228-23 309-68 102-57 153-142 153-257m-270-262v29l-1 45H523c-131 0-197-35-197-105v-71c0-62 68-93 203-93h544c79 0 129 13 148 40 15 21 22 72 22 155z"
       horiz-adv-x="1557"
       unicode="a"
       id="glyph3702" /><glyph
       d="M1453 341c0-221-176-332-529-332H600C471 9 356 32 253 78 120 138 54 224 54 336v950h271v-266h599c353 0 529-109 529-327m-270-325v301c0 76-85 114-255 114H325V357c0-42 40-73 121-92 54-13 114-19 179-19h301c171 0 257 41 257 122z"
       horiz-adv-x="1502"
       unicode="b"
       id="glyph3704" /><glyph
       d="M1479 9H573C422 9 306 26 227 59 108 109 49 199 49 329v378c0 214 160 321 480 321h950V790H515c-130 0-195-26-195-77V338c0-61 86-92 259-92h900z"
       horiz-adv-x="1521"
       unicode="c"
       id="glyph3706" /><glyph
       d="M1462 334c0-113-66-199-199-258-101-45-217-67-347-67H594C239 9 62 109 62 308v385c0 218 176 327 529 327h600v271h271m-271-953v445H578c-163 0-245-32-245-95V348c0-70 67-104 201-103l361 1c197 0 296 31 296 92z"
       horiz-adv-x="1509"
       unicode="d"
       id="glyph3708" /><glyph
       d="M1436 385H330c0-94 132-141 397-141 17 0 38 0 63 1s40 1 47 1V8H640c-225 0-378 32-461 96C93 170 50 249 50 342v353c0 121 63 210 189 268 95 44 210 66 347 66h394c115 0 214-21 297-63 106-53 159-130 159-233m-266-105v78c0 59-74 88-222 88H554c-155 0-233-29-233-86v-80z"
       horiz-adv-x="1477"
       unicode="e"
       id="glyph3710" /><glyph
       d="M734 774H328V9H57v966c0 209 168 313 503 313h174v-226H465c-75 0-113-17-115-52h384z"
       horiz-adv-x="775"
       unicode="f"
       id="glyph3712" /><glyph
       d="M1437 71c0-121-71-209-214-266-103-41-226-61-369-61H655v227h264c96 0 152 15 168 46H611c-145 0-265 19-359 58C119 130 52 219 52 343v356c0 219 182 329 545 329h269c143 0 265-21 364-63 138-57 207-146 207-268m-273-444v435c0 36-37 63-110 82-52 14-103 21-154 21H531c-139 1-208-28-208-88V346c0-63 83-94 249-94z"
       horiz-adv-x="1481"
       unicode="g"
       id="glyph3714" /><glyph
       d="M1451 3h-271v680c0 67-72 101-216 101H337V3H66v1290h271v-273h540c171 0 296-16 377-47 131-50 197-146 197-287z"
       horiz-adv-x="1515"
       unicode="h"
       id="glyph3716" /><glyph
       d="M392 1166c0-42-18-76-55-101-32-23-70-34-114-34-45 0-83 11-114 34-35 26-53 61-53 104s18 78 53 103c31 23 69 35 114 35 44 0 82-12 115-37 36-27 54-61 54-104M351 9H81v994h270z"
       horiz-adv-x="422"
       unicode="i"
       id="glyph3718" /><glyph
       d="M390 1170c0-42-19-76-56-101-33-23-71-34-114-34-45 0-84 11-115 34-36 25-54 60-54 104 0 43 18 78 54 103 31 23 70 35 115 35 44 0 82-12 115-37 37-27 55-61 55-104M357 129c0-137-57-229-171-277-72-30-188-45-348-45l-170 1V45c131 0 207 1 228 2C23 58 86 86 86 131v874h271z"
       horiz-adv-x="434"
       unicode="j"
       id="glyph3720" /><glyph
       d="M1073 3H723L335 393V3H66v1290h269V672l388 390h325L528 544z"
       horiz-adv-x="1094"
       unicode="k"
       id="glyph3722" /><glyph
       d="M353 2H71v1292h282z"
       horiz-adv-x="421"
       unicode="l"
       id="glyph3724" /><glyph
       d="M1945 3h-272v676c0 42-38 74-114 97-54 15-110 23-168 23-57 0-108-7-151-22-63-20-94-52-94-95V3H873v681c0 44-34 77-103 99-49 16-102 24-160 24-60 0-115-8-164-25-69-23-104-58-104-105V3H71v682c0 229 163 343 490 343 224 0 375-35 454-104 93 69 245 104 457 104 315 0 473-114 473-343z"
       horiz-adv-x="2016"
       unicode="m"
       id="glyph3726" /><glyph
       d="M1425 3h-273v705c0 30-32 52-97 67-43 10-90 15-139 15H552c-47 0-92-5-133-16-61-15-91-37-91-67V3H57v722c0 202 171 303 514 303h345c339 0 509-100 509-301z"
       horiz-adv-x="1482"
       unicode="n"
       id="glyph3728" /><glyph
       d="M1434 337c0-119-57-206-170-263-87-43-196-65-328-65H585C453 9 341 31 248 75 127 132 66 220 66 337v353c0 116 60 205 181 266 95 48 208 72 337 72h352c332 0 498-112 498-336m-274-345v349c0 35-30 60-91 76-42 12-88 18-139 18H587c-49 0-98-8-148-24-68-21-102-49-102-86V347c0-35 35-62 105-81 50-13 99-20 146-20h343c41 0 86 8 135 23 63 20 94 46 94 78z"
       horiz-adv-x="1505"
       unicode="o"
       id="glyph3730" /><glyph
       d="M1465 344c0-218-162-327-486-327H351v-273H80v969c0 210 171 315 512 315h336c358 0 537-104 537-312m-273-375v372c0 52-68 78-205 78H601c-167 0-250-28-250-83V253h637c136 0 204 29 204 88z"
       horiz-adv-x="1522"
       unicode="p"
       id="glyph3732" /><glyph
       d="M1451-256h-273V17H553C228 17 66 126 66 344v371c0 209 179 313 536 313h339c340 0 510-105 510-314m-273-461v456c0 55-83 82-248 82H548c-141 0-211-26-211-78V341c0-59 65-88 196-88z"
       horiz-adv-x="1514"
       unicode="q"
       id="glyph3734" /><glyph
       d="M738 790H530c-136 0-204-30-204-89V2H55v699c0 218 167 327 500 327h183z"
       horiz-adv-x="771"
       unicode="r"
       id="glyph3736" /><glyph
       d="M1324 313c0-203-149-304-448-304H52v237h825c112 0 168 22 168 67v36c0 38-50 57-150 57H552c-335 0-503 98-503 294v52c0 115 56 194 167 236 70 27 174 40 313 40h272V790H538c-145 0-218-15-218-45v-43c0-29 33-46 100-53 18-2 62-3 133-3h350c281 0 421-96 421-289z"
       horiz-adv-x="1362"
       unicode="s"
       id="glyph3738" /><glyph
       d="M873 784H458V3H187v781H30v235h157v273h271v-272h415z"
       horiz-adv-x="890"
       unicode="t"
       id="glyph3740" /><glyph
       d="M1457 325c0-130-63-220-188-269-81-31-198-47-353-47H601C238 9 57 114 57 325v708h271V335c0-59 86-89 259-89h344c168 0 252 29 252 86v701h274z"
       horiz-adv-x="1512"
       unicode="u"
       id="glyph3742" /><glyph
       d="M1814 1034c-5-7-45-57-122-150L994 38c-29-35-63-52-104-52-39 0-73 17-100 50L87 884c-28 33-69 83-123 150h337l591-716 588 716z"
       horiz-adv-x="1776"
       unicode="v"
       id="glyph3744" /><glyph
       d="m2122 1041-1-2-4-9-22-44-81-164c-80-163-202-407-367-731-29-56-81-84-154-84s-124 27-152 81l-284 554L767 86C739 32 687 5 612 5c-72 0-125 28-158 85-1 2-17 35-49 100L288 429C221 564 123 768-5 1041c118-2 183-3 194-3 13 0 46 1 101 3l329-668 289 553c31 57 80 86 149 86 68 0 117-28 146-85l289-554 331 668z"
       horiz-adv-x="2103"
       unicode="w"
       id="glyph3746" /><glyph
       d="M1310-4H968L672 327 375-4H33l473 517-473 527h322l317-346 316 346h322L838 513z"
       horiz-adv-x="1312"
       unicode="x"
       id="glyph3748" /><glyph
       d="M1430 54c0-132-69-221-208-268-83-29-207-43-372-43l-186 1v232h282c138 0 209 14 212 41H558C221 17 52 122 52 333v700h271V343c0-60 78-90 235-90h600v780h272z"
       horiz-adv-x="1485"
       unicode="y"
       id="glyph3750" /><glyph
       d="M1354 9H219c-44 0-83 13-118 38-38 28-57 63-57 106 0 35 23 72 70 112l863 731h377L478 248h876z"
       horiz-adv-x="1390"
       unicode="z"
       id="glyph3752" /><glyph
       d="M690 1334c0-53-21-87-64-102-22-8-66-11-131-10l-2-465c0-57-33-93-98-108 65-26 98-62 98-109l2-471h39c47 0 81-6 100-18 26-16 39-47 39-93 0-71-36-107-107-107-101 0-177 7-228 21-90 27-135 78-135 153v517c-74 18-111 52-111 102s37 88 111 113v514c0 76 45 127 134 153 50 15 125 23 226 23 85 0 127-38 127-113z"
       horiz-adv-x="718"
       unicode="{"
       id="glyph3754" /><glyph
       d="M367-257H85v1649h282z"
       horiz-adv-x="427"
       unicode="|"
       id="glyph3756" /><glyph
       d="M661 645c0-48-25-79-74-94-13-2-25-5-37-9V25c0-75-44-126-131-152-49-15-124-22-223-22-78 0-117 36-117 107 0 53 18 86 55 101 20 7 61 11 124 10l1 471c0 45 33 82 98 109-65 23-98 60-98 109l-1 464-46-1c-99 0-149 38-149 113s41 113 124 113c102 0 178-8 228-23 90-26 135-77 135-153V757c0 1 13-4 39-13 48-19 72-52 72-99z"
       horiz-adv-x="702"
       unicode="}"
       id="glyph3758" /><glyph
       d="m1601 1058-1-226c0-118-42-201-127-249-64-36-160-54-287-54-145 0-252 15-319 44-103 45-155 131-155 257 0 39-13 65-38 76-7 3-48 5-121 5h-33c-71 0-111-2-120-7-21-10-32-29-32-56V620H96l1 226c0 127 49 213 146 258 65 30 169 45 313 45 229 0 367-64 412-191 8-23 14-60 17-109 1-23 4-38 7-46 5-14 16-25 32-32 7-3 43-5 107-5l74 1c52 0 83 2 93 7 22 10 33 37 33 82-1 45-1 113-2 202z"
       horiz-adv-x="1663"
       unicode="~"
       id="glyph3760" /><glyph
       d="M74 626h282v-985H74M46 798c0 42 18 76 55 101 33 23 71 34 115 34 45 0 83-12 115-35 35-25 52-60 52-103s-17-78-52-104c-32-23-70-34-115-34-44 0-82 12-115 37-37 27-55 61-55 104z"
       horiz-adv-x="465"
       unicode="¡"
       id="glyph3762" /><glyph
       d="M1497 429H591c-151 0-267 17-346 50C126 529 67 619 67 749v378c0 214 160 321 480 321h950v-238H533c-130 0-195-26-195-77V758c0-61 86-92 259-92h900M993 272H711v1292h282z"
       horiz-adv-x="1525"
       unicode="¢"
       id="glyph3764" /><glyph
       horiz-adv-x="755"
       unicode="£"
       id="glyph3766" /><glyph
       horiz-adv-x="755"
       unicode="¤"
       id="glyph3768" /><glyph
       d="m1825 1301-795-766V3H749v532l-802 766h383l559-536 564 536m30-852H281v233h1202m0-533H281v233h1202z"
       horiz-adv-x="1740"
       unicode="¥"
       id="glyph3770" /><glyph
       d="M239 697H96v802h143m0-1924H96v802h143z"
       horiz-adv-x="292"
       unicode="¦"
       id="glyph3772" /><glyph
       horiz-adv-x="755"
       unicode="§"
       id="glyph3774" /><glyph
       d="M697 1167c0-33-15-62-45-85-27-21-59-31-94-31-37 0-69 10-94 31-28 22-42 51-42 88s13 67 40 89 59 33 96 33c36 0 68-12 97-36 28-24 42-54 42-89m-348 1c0-34-14-62-43-84s-60-33-95-33c-37 0-69 10-95 31-28 22-42 52-42 89s13 66 40 88 59 33 96 33c36 0 68-12 97-36 28-24 42-53 42-88z"
       horiz-adv-x="774"
       unicode="¨"
       id="glyph3776" /><glyph
       d="M1286 790c0-166-59-307-178-423-119-117-262-175-428-175-168 0-311 59-428 176S76 627 76 796c0 167 59 310 177 428 117 117 260 176 427 176 169 0 312-59 430-178 117-119 176-263 176-432m-110 10c0 135-49 251-146 347s-214 144-350 144c-137 0-254-48-350-145S186 933 186 796s48-254 144-350c96-97 213-145 350-145 138 0 255 49 352 146 96 97 144 214 144 353m-304 208H588c-49 0-74-12-74-37V617c0-33 28-50 85-50h272V399H599c-65 0-116 16-153 47-48 40-72 96-72 168v356c0 136 71 204 212 204h286z"
       horiz-adv-x="1326"
       unicode="©"
       id="glyph3778" /><glyph
       horiz-adv-x="755"
       unicode="ª"
       id="glyph3780" /><glyph
       horiz-adv-x="755"
       unicode="«"
       id="glyph3782" /><glyph
       horiz-adv-x="755"
       unicode="¬"
       id="glyph3784" /><glyph
       d="M1286 790c0-166-59-307-178-423-119-117-262-175-428-175-168 0-311 59-428 176S76 627 76 796c0 167 59 310 177 428 117 117 260 176 427 176 169 0 312-59 430-178 117-119 176-263 176-432M893 910v33c0 26-7 43-20 50-9 5-28 7-58 7H505V859l325-1c42 0 63 17 63 52m283-110c0 135-49 251-146 347s-214 144-350 144c-137 0-254-48-350-145S186 933 186 796s48-254 144-350c96-97 213-145 350-145 149 0 272 55 370 165H893L505 706V466H351v687h440c169 0 254-63 254-189v-75c0-123-89-184-268-183 109-57 215-119 316-184 55 83 83 176 83 278z"
       horiz-adv-x="1326"
       unicode="®"
       id="glyph3786" /><glyph
       horiz-adv-x="755"
       unicode="¯"
       id="glyph3788" /><glyph
       d="M749 1122c0-93-33-171-100-236s-146-98-239-98c-94 0-174 33-239 98s-98 145-98 239c0 95 33 175 98 240s144 98 239 98 175-33 241-99c65-67 98-147 98-242m-145 5c0 53-19 99-57 136s-84 56-137 56c-56 0-102-18-137-54-36-37-54-83-54-139 0-57 18-103 54-139 35-36 81-54 137-54 54 0 100 19 138 57 37 37 56 83 56 137z"
       horiz-adv-x="806"
       unicode="°"
       id="glyph3790" /><glyph
       horiz-adv-x="755"
       unicode="±"
       id="glyph3792" /><glyph
       horiz-adv-x="755"
       unicode="²"
       id="glyph3794" /><glyph
       horiz-adv-x="755"
       unicode="³"
       id="glyph3796" /><glyph
       d="m705 1343-291-343H184l295 343z"
       horiz-adv-x="828"
       unicode="´"
       id="glyph3798" /><glyph
       horiz-adv-x="755"
       unicode="µ"
       id="glyph3800" /><glyph
       d="M987 1318H854V-425H722v1743H595V-425H462V619C142 635-18 771-18 1028c0 133 48 236 144 308 86 65 198 97 336 97h525z"
       horiz-adv-x="987"
       unicode="¶"
       id="glyph3802" /><glyph
       horiz-adv-x="755"
       unicode="·"
       id="glyph3804" /><glyph
       d="M417-15c0-92-22-167-65-224-48-63-117-95-206-95H-92v241h208c20 0 30 12 30 36V93h271z"
       horiz-adv-x="489"
       unicode="¸"
       id="glyph3806" /><glyph
       horiz-adv-x="755"
       unicode="¹"
       id="glyph3808" /><glyph
       d="M680 1138c0-91-32-169-97-236S441 802 351 802c-89 0-163 31-223 93s-90 138-90 227c0 97 30 178 89 242s136 96 233 96c93 0 170-30 230-91s90-138 90-231m-197-73c0 61-11 121-32 178-27 77-66 115-116 115-64 0-96-53-96-158 0-62 9-120 28-174 26-74 64-111 113-111 69 0 103 50 103 150z"
       horiz-adv-x="731"
       unicode="º"
       id="glyph3810" /><glyph
       horiz-adv-x="755"
       unicode="»"
       id="glyph3812" /><glyph
       horiz-adv-x="755"
       unicode="¼"
       id="glyph3814" /><glyph
       horiz-adv-x="755"
       unicode="½"
       id="glyph3816" /><glyph
       horiz-adv-x="755"
       unicode="¾"
       id="glyph3818" /><glyph
       d="M62 136c0 111 68 195 203 252 95 41 221 61 376 61 18 0 45 0 81-1 35-1 62-1 79-1 29 0 43 16 43 47v100h271V437c0-91-45-155-134-190-61-24-151-36-269-36-16 0-38 0-65 1h-57c-45 0-94-5-146-16-75-15-112-36-112-65V-5c0-58 58-94 173-109 37-5 116-8 239-8v-236H584c-137 0-252 24-345 72C121-225 62-133 62-8m755 785c0 42 18 76 55 101 33 23 71 34 114 34 45 0 84-11 115-34 36-25 54-60 54-104 0-43-18-78-53-103-31-23-70-35-115-35-44 0-82 12-115 37-37 27-55 61-55 104z"
       horiz-adv-x="1184"
       unicode="¿"
       id="glyph3820" /><glyph
       d="M1938-2h-317l-234 332H514L286-2H-46l843 1199c41 58 93 87 158 87s118-29 157-86m103-624L945 956 681 574m389 715H840l-291 343h226z"
       horiz-adv-x="1909"
       unicode="À"
       id="glyph3822" /><glyph
       d="M1938-2h-317l-234 332H514L286-2H-46l843 1199c41 58 93 87 158 87s118-29 157-86m103-624L945 956 681 574m711 1060-291-343H871l295 343z"
       horiz-adv-x="1909"
       unicode="Á"
       id="glyph3824" /><glyph
       d="M1938-2h-317l-234 332H514L286-2H-46l843 1199c41 58 93 87 158 87s118-29 157-86m103-624L945 956 681 574m578 836-141-123-173 167-166-167-160 108 238 231c26 25 55 38 86 38 32 0 61-13 88-38z"
       horiz-adv-x="1909"
       unicode="Â"
       id="glyph3826" /><glyph
       d="M1938-2h-317l-234 332H514L286-2H-46l843 1199c41 58 93 87 158 87s118-29 157-86m103-624L945 956 681 574m562 824H587v209h656z"
       horiz-adv-x="1909"
       unicode="Ã"
       id="glyph3828" /><glyph
       d="M1938-2h-317l-234 332H514L286-2H-46l843 1199c41 58 93 87 158 87s118-29 157-86m103-624L945 956 681 574m587 933c0-33-15-62-45-85-27-21-59-31-94-31-37 0-69 10-94 31-28 22-42 51-42 88s13 67 40 89 59 33 96 33c36 0 68-12 97-36 28-24 42-54 42-89m-348 1c0-34-14-62-43-84s-60-33-95-33c-37 0-69 10-95 31-28 22-42 52-42 89s13 66 40 88 59 33 96 33c36 0 68-12 97-36 28-24 42-53 42-88z"
       horiz-adv-x="1909"
       unicode="Ä"
       id="glyph3830" /><glyph
       d="M1938-2h-317l-234 332H514L286-2H-46l843 1199c41 58 93 87 158 87s118-29 157-86m103-624L945 956 681 574m456 907c0-48-18-88-55-121s-79-49-128-49c-52 0-95 16-129 49-34 32-51 74-51 125s17 93 51 125c34 31 77 47 129 47 49 0 92-17 129-51 36-34 54-76 54-125m-108 4c0 20-7 37-22 50s-33 19-54 19c-50 0-75-23-75-69s25-69 75-69c51 0 76 23 76 69z"
       horiz-adv-x="1909"
       unicode="Å"
       id="glyph3832" /><glyph
       d="M1673 764c-1-39-1-120-1-243h-519V351c0-66 85-99 255-99h264V9h-274c-135 0-247 20-336 61-117 55-181 141-190 260H447L230-3H-64l803 1224c35 54 93 81 174 81 79 0 125-29 140-87 93 49 228 73 407 73 31 0 99 0 204-1v-241c-108 2-179 3-213 3-200 0-300-34-300-102V764M870 574v369L618 574z"
       horiz-adv-x="1739"
       unicode="Æ"
       id="glyph3834" /><glyph
       d="M1492 9H623C242 9 52 124 52 354v606c0 120 63 208 190 265 93 41 208 62 346 62h904v-241H559c-150 0-225-28-225-85V358c0-71 96-106 289-106h869M998 25c0-92-22-167-65-224-48-63-117-95-206-95H489v241h208c20 0 30 12 30 36v150h271z"
       horiz-adv-x="1531"
       unicode="Ç"
       id="glyph3836" /><glyph
       d="M1503 9H599C467 9 353 32 257 77 134 137 72 226 72 343v604c0 121 64 212 192 271 98 46 216 69 354 69h287v-241H632c-187 0-280-33-280-99V764h1151V521H354V351c0-66 85-99 255-99h894M894 1284H664l-291 343h226z"
       horiz-adv-x="1535"
       unicode="È"
       id="glyph3838" /><glyph
       d="M1503 9H599C467 9 353 32 257 77 134 137 72 226 72 343v604c0 121 64 212 192 271 98 46 216 69 354 69h287v-241H632c-187 0-280-33-280-99V764h1151V521H354V351c0-66 85-99 255-99h894m-310 1371-291-343H672l295 343z"
       horiz-adv-x="1535"
       unicode="É"
       id="glyph3840" /><glyph
       d="M1503 9H599C467 9 353 32 257 77 134 137 72 226 72 343v604c0 121 64 212 192 271 98 46 216 69 354 69h287v-241H632c-187 0-280-33-280-99V764h1151V521H354V351c0-66 85-99 255-99h894m-472 1162-141-123-173 167-166-167-160 108 238 231c26 25 55 38 86 38 32 0 61-13 88-38z"
       horiz-adv-x="1535"
       unicode="Ê"
       id="glyph3842" /><glyph
       d="M1503 9H599C467 9 353 32 257 77 134 137 72 226 72 343v604c0 121 64 212 192 271 98 46 216 69 354 69h287v-241H632c-187 0-280-33-280-99V764h1151V521H354V351c0-66 85-99 255-99h894M936 1517c0-33-15-62-45-85-27-21-59-31-94-31-37 0-69 10-94 31-28 22-42 51-42 88s13 67 40 89 59 33 96 33c36 0 68-12 97-36 28-24 42-54 42-89m-348 1c0-34-14-62-43-84s-60-33-95-33c-37 0-69 10-95 31-28 22-42 52-42 89s13 66 40 88 59 33 96 33c36 0 68-12 97-36 28-24 42-53 42-88z"
       horiz-adv-x="1535"
       unicode="Ë"
       id="glyph3844" /><glyph
       d="M313 2H31v1292h282m-15-9H68l-291 343H3z"
       horiz-adv-x="398"
       unicode="Ì"
       id="glyph3846" /><glyph
       d="M307 2H25v1292h282m257 346-291-343H43l295 343z"
       horiz-adv-x="398"
       unicode="Í"
       id="glyph3848" /><glyph
       d="M320 2H38v1292h282m166 126-141-123-173 167L6 1297l-160 108 238 231c26 25 55 38 86 38 32 0 61-13 88-38z"
       horiz-adv-x="398"
       unicode="Î"
       id="glyph3850" /><glyph
       d="M320 2H38v1292h282m155 224c0-33-15-62-45-85-27-21-59-31-94-31-37 0-69 10-94 31-28 22-42 51-42 88s13 67 40 89 59 33 96 33c36 0 68-12 97-36 28-24 42-54 42-89m-348 1c0-34-14-62-43-84s-60-33-95-33c-37 0-69 10-95 31-28 22-42 52-42 89s13 66 40 88 59 33 96 33c36 0 68-12 97-36 28-24 42-53 42-88z"
       horiz-adv-x="398"
       unicode="Ï"
       id="glyph3852" /><glyph
       d="M1734 368c0-125-60-220-181-283-95-51-212-76-349-76H156v545H-41v186h197v547h1053c141 0 257-22 346-65 119-57 179-149 179-275m-280-578v577c0 36-34 63-101 81-46 13-96 19-150 19H438V740h167V554H438V252h761c59 0 112 7 157 21 65 20 98 52 98 96z"
       horiz-adv-x="1785"
       unicode="Ð"
       id="glyph3854" /><glyph
       d="M1630 170c0-113-46-169-139-169-55 0-109 22-160 66L344 906V1L62 2v1132c0 109 45 163 135 163 61 0 119-24 176-73l974-828v901h283m-445 116H529v209h656z"
       horiz-adv-x="1687"
       unicode="Ñ"
       id="glyph3856" /><glyph
       d="M1580 366c0-238-198-357-595-357H639C484 9 356 31 255 74 116 134 46 231 46 365v562c0 240 198 360 593 360h346c175 0 307-18 394-54 134-55 201-157 201-306m-283-556v551c0 83-102 124-307 124H638c-207 0-310-41-310-124V371c0-79 103-119 310-119h353c204 0 306 40 306 119m-357 918H710l-291 343h226z"
       horiz-adv-x="1640"
       unicode="Ò"
       id="glyph3858" /><glyph
       d="M1580 366c0-238-198-357-595-357H639C484 9 356 31 255 74 116 134 46 231 46 365v562c0 240 198 360 593 360h346c175 0 307-18 394-54 134-55 201-157 201-306m-283-556v551c0 83-102 124-307 124H638c-207 0-310-41-310-124V371c0-79 103-119 310-119h353c204 0 306 40 306 119m-96 1252-291-343H680l295 343z"
       horiz-adv-x="1640"
       unicode="Ó"
       id="glyph3860" /><glyph
       d="M1580 366c0-238-198-357-595-357H639C484 9 356 31 255 74 116 134 46 231 46 365v562c0 240 198 360 593 360h346c175 0 307-18 394-54 134-55 201-157 201-306m-283-556v551c0 83-102 124-307 124H638c-207 0-310-41-310-124V371c0-79 103-119 310-119h353c204 0 306 40 306 119m-178 1039-141-123-173 167-166-167-160 108 238 231c26 25 55 38 86 38 32 0 61-13 88-38z"
       horiz-adv-x="1640"
       unicode="Ô"
       id="glyph3862" /><glyph
       d="M1580 366c0-238-198-357-595-357H639C484 9 356 31 255 74 116 134 46 231 46 365v562c0 240 198 360 593 360h346c175 0 307-18 394-54 134-55 201-157 201-306m-283-556v551c0 83-102 124-307 124H638c-207 0-310-41-310-124V371c0-79 103-119 310-119h353c204 0 306 40 306 119m-166 1041H475v209h656z"
       horiz-adv-x="1640"
       unicode="Õ"
       id="glyph3864" /><glyph
       d="M1580 366c0-238-198-357-595-357H639C484 9 356 31 255 74 116 134 46 231 46 365v562c0 240 198 360 593 360h346c175 0 307-18 394-54 134-55 201-157 201-306m-283-556v551c0 83-102 124-307 124H638c-207 0-310-41-310-124V371c0-79 103-119 310-119h353c204 0 306 40 306 119m-206 1149c0-33-15-62-45-85-27-21-59-31-94-31-37 0-69 10-94 31-28 22-42 51-42 88s13 67 40 89 59 33 96 33c36 0 68-12 97-36 28-24 42-54 42-89m-348 1c0-34-14-62-43-84s-60-33-95-33c-37 0-69 10-95 31-28 22-42 52-42 89s13 66 40 88 59 33 96 33c36 0 68-12 97-36 28-24 42-53 42-88z"
       horiz-adv-x="1640"
       unicode="Ö"
       id="glyph3866" /><glyph
       d="m931 375-99-101-354 354-353-353-99 100 353 353-352 352 100 100 352-352 352 352 98-100-352-351z"
       horiz-adv-x="972"
       unicode="×"
       id="glyph3868" /><glyph
       d="M1597 376c0-238-198-357-595-357H656c-155 0-283 22-384 65C133 144 63 241 63 375v562c0 240 198 360 593 360h346c175 0 307-18 394-54 134-55 201-157 201-306m-283-556v551c0 83-102 124-307 124H655c-207 0-310-41-310-124V381c0-79 103-119 310-119h353c204 0 306 40 306 119m440 923L439 13H55l1328 1291z"
       horiz-adv-x="1640"
       unicode="Ø"
       id="glyph3870" /><glyph
       d="M1595 382c0-151-72-256-217-315-96-39-233-58-410-58H659C472 9 334 26 245 61 104 117 33 224 33 382v911h283V397c0-97 104-145 313-145l379-1c204 0 306 48 306 145v897h281m-570 3H795l-291 343h226z"
       horiz-adv-x="1666"
       unicode="Ù"
       id="glyph3872" /><glyph
       d="M1595 382c0-151-72-256-217-315-96-39-233-58-410-58H659C472 9 334 26 245 61 104 117 33 224 33 382v911h283V397c0-97 104-145 313-145l379-1c204 0 306 48 306 145v897h281m-500 341-291-343H574l295 343z"
       horiz-adv-x="1666"
       unicode="Ú"
       id="glyph3874" /><glyph
       d="M1595 382c0-151-72-256-217-315-96-39-233-58-410-58H659C472 9 334 26 245 61 104 117 33 224 33 382v911h283V397c0-97 104-145 313-145l379-1c204 0 306 48 306 145v897h281m-467 116-141-123-173 167-166-167-160 108 238 231c26 25 55 38 86 38 32 0 61-13 88-38z"
       horiz-adv-x="1666"
       unicode="Û"
       id="glyph3876" /><glyph
       d="M1595 382c0-151-72-256-217-315-96-39-233-58-410-58H659C472 9 334 26 245 61 104 117 33 224 33 382v911h283V397c0-97 104-145 313-145l379-1c204 0 306 48 306 145v897h281m-496 221c0-33-15-62-45-85-27-21-59-31-94-31-37 0-69 10-94 31-28 22-42 51-42 88s13 67 40 89 59 33 96 33c36 0 68-12 97-36 28-24 42-54 42-89m-348 1c0-34-14-62-43-84s-60-33-95-33c-37 0-69 10-95 31-28 22-42 52-42 89s13 66 40 88 59 33 96 33c36 0 68-12 97-36 28-24 42-53 42-88z"
       horiz-adv-x="1666"
       unicode="Ü"
       id="glyph3878" /><glyph
       d="m1808 1301-795-766V3H732v532l-802 766h383l559-536 564 536m-151 340-291-343H764l295 343z"
       horiz-adv-x="1723"
       unicode="Ý"
       id="glyph3880" /><glyph
       horiz-adv-x="755"
       unicode="Þ"
       id="glyph3882" /><glyph
       d="M1633 881c0-121-39-196-117-225 79-42 117-123 116-243v-60c-2-131-65-226-188-285-92-44-212-66-359-66H553v243h532c177 0 265 33 265 99v115c0 48-85 72-256 72H553v243l580-1c145 0 217 27 217 80v115c0 47-73 71-219 71h1-648c-97 0-145-29-145-86V2H65v951c0 102 36 183 109 244 68 57 154 86 259 86h650c155 0 274-17 357-51 125-50 189-140 192-271 1-25 1-51 1-80z"
       horiz-adv-x="1696"
       unicode="ß"
       id="glyph3884" /><glyph
       d="M1502 327c0-212-154-318-462-318H524C409 9 306 32 215 77 101 134 44 214 44 317v122c0 109 54 192 163 247 85 44 189 66 310 66h692c0 32-56 48-169 48H745v228h295c125 0 228-23 309-68 102-57 153-142 153-257m-270-262v29l-1 45H512c-131 0-197-35-197-105v-71c0-62 68-93 203-93h544c79 0 129 13 148 40 15 21 22 72 22 155m-120 581H882l-291 343h226z"
       horiz-adv-x="1557"
       unicode="à"
       id="glyph3886" /><glyph
       d="M1502 327c0-212-154-318-462-318H524C409 9 306 32 215 77 101 134 44 214 44 317v122c0 109 54 192 163 247 85 44 189 66 310 66h692c0 32-56 48-169 48H745v228h295c125 0 228-23 309-68 102-57 153-142 153-257m-270-262v29l-1 45H512c-131 0-197-35-197-105v-71c0-62 68-93 203-93h544c79 0 129 13 148 40 15 21 22 72 22 155m28 926-291-343H739l295 343z"
       horiz-adv-x="1557"
       unicode="á"
       id="glyph3888" /><glyph
       d="M1502 327c0-212-154-318-462-318H524C409 9 306 32 215 77 101 134 44 214 44 317v122c0 109 54 192 163 247 85 44 189 66 310 66h692c0 32-56 48-169 48H745v228h295c125 0 228-23 309-68 102-57 153-142 153-257m-270-262v29l-1 45H512c-131 0-197-35-197-105v-71c0-62 68-93 203-93h544c79 0 129 13 148 40 15 21 22 72 22 155m101 699-141-123-173 167-166-167-160 108 238 231c26 25 55 38 86 38 32 0 61-13 88-38z"
       horiz-adv-x="1557"
       unicode="â"
       id="glyph3890" /><glyph
       d="M1502 327c0-212-154-318-462-318H524C409 9 306 32 215 77 101 134 44 214 44 317v122c0 109 54 192 163 247 85 44 189 66 310 66h692c0 32-56 48-169 48H745v228h295c125 0 228-23 309-68 102-57 153-142 153-257m-270-262v29l-1 45H512c-131 0-197-35-197-105v-71c0-62 68-93 203-93h544c79 0 129 13 148 40 15 21 22 72 22 155m149 677H725v209h656z"
       horiz-adv-x="1557"
       unicode="ã"
       id="glyph3892" /><glyph
       d="M1502 327c0-212-154-318-462-318H524C409 9 306 32 215 77 101 134 44 214 44 317v122c0 109 54 192 163 247 85 44 189 66 310 66h692c0 32-56 48-169 48H745v228h295c125 0 228-23 309-68 102-57 153-142 153-257m-270-262v29l-1 45H512c-131 0-197-35-197-105v-71c0-62 68-93 203-93h544c79 0 129 13 148 40 15 21 22 72 22 155m72 776c0-33-15-62-45-85-27-21-59-31-94-31-37 0-69 10-94 31-28 22-42 51-42 88s13 67 40 89 59 33 96 33c36 0 68-12 97-36 28-24 42-54 42-89m-348 1c0-34-14-62-43-84s-60-33-95-33c-37 0-69 10-95 31-28 22-42 52-42 89s13 66 40 88 59 33 96 33c36 0 68-12 97-36 28-24 42-53 42-88z"
       horiz-adv-x="1557"
       unicode="ä"
       id="glyph3894" /><glyph
       d="M1502 327c0-212-154-318-462-318H524C409 9 306 32 215 77 101 134 44 214 44 317v122c0 109 54 192 163 247 85 44 189 66 310 66h692c0 32-56 48-169 48H745v228h295c125 0 228-23 309-68 102-57 153-142 153-257m-270-262v29l-1 45H512c-131 0-197-35-197-105v-71c0-62 68-93 203-93h544c79 0 129 13 148 40 15 21 22 72 22 155m-116 745c0-48-18-88-55-121s-79-49-128-49c-52 0-95 16-129 49-34 32-51 74-51 125s17 93 51 125c34 31 77 47 129 47 49 0 92-17 129-51 36-34 54-76 54-125m-108 4c0 20-7 37-22 50s-33 19-54 19c-50 0-75-23-75-69s25-69 75-69c51 0 76 23 76 69z"
       horiz-adv-x="1557"
       unicode="å"
       id="glyph3896" /><glyph
       d="M2056 385h-847c10-94 109-141 296-141 15 0 34 0 58 1 23 1 39 1 46 1V8h-36c-242 0-406 27-493 82-79-55-208-83-386-83-18 0-44 0-79 1s-61 1-78 1C423 9 320 32 229 77 114 134 57 214 57 317v122c0 109 54 191 163 247 86 44 189 66 310 66h372c-40 27-114 40-221 40H437v236h134c237 0 403-31 499-92 98 62 258 93 480 93h50c115 0 214-21 297-63 106-53 159-130 159-233m-266-105v88c0 53-77 79-231 79-239 0-358-29-358-87v-80M929 403c0 14-1 33-2 56-1 27-2 46-3 56H525c-31 0-69-6-113-19-56-15-84-34-84-56V319c0-23 29-41 87-56 44-11 83-17 116-17h213c74 0 122 7 143 22 28 20 42 65 42 135z"
       horiz-adv-x="2107"
       unicode="æ"
       id="glyph3898" /><glyph
       d="M1488 9H582C431 9 315 26 236 59 117 109 58 199 58 329v378c0 214 160 321 480 321h950V790H524c-130 0-195-26-195-77V338c0-61 86-92 259-92h900M1095-5c0-92-22-167-65-224-48-63-117-95-206-95H586v241h208c20 0 30 12 30 36v150h271z"
       horiz-adv-x="1537"
       unicode="ç"
       id="glyph3900" /><glyph
       d="M1430 385H324c0-94 132-141 397-141 17 0 38 0 63 1s40 1 47 1V8H634c-225 0-378 32-461 96C87 170 44 249 44 342v353c0 121 63 210 189 268 95 44 210 66 347 66h394c115 0 214-21 297-63 106-53 159-130 159-233m-266-105v78c0 59-74 88-222 88H548c-155 0-233-29-233-86v-80m744 389H829l-291 343h226z"
       horiz-adv-x="1477"
       unicode="è"
       id="glyph3902" /><glyph
       d="M1430 385H324c0-94 132-141 397-141 17 0 38 0 63 1s40 1 47 1V8H634c-225 0-378 32-461 96C87 170 44 249 44 342v353c0 121 63 210 189 268 95 44 210 66 347 66h394c115 0 214-21 297-63 106-53 159-130 159-233m-266-105v78c0 59-74 88-222 88H548c-155 0-233-29-233-86v-80m777 732-291-343H571l295 343z"
       horiz-adv-x="1477"
       unicode="é"
       id="glyph3904" /><glyph
       d="M1430 385H324c0-94 132-141 397-141 17 0 38 0 63 1s40 1 47 1V8H634c-225 0-378 32-461 96C87 170 44 249 44 342v353c0 121 63 210 189 268 95 44 210 66 347 66h394c115 0 214-21 297-63 106-53 159-130 159-233m-266-105v78c0 59-74 88-222 88H548c-155 0-233-29-233-86v-80m795 507-141-123-173 167-166-167-160 108 238 231c26 25 55 38 86 38 32 0 61-13 88-38z"
       horiz-adv-x="1477"
       unicode="ê"
       id="glyph3906" /><glyph
       d="M1430 385H324c0-94 132-141 397-141 17 0 38 0 63 1s40 1 47 1V8H634c-225 0-378 32-461 96C87 170 44 249 44 342v353c0 121 63 210 189 268 95 44 210 66 347 66h394c115 0 214-21 297-63 106-53 159-130 159-233m-266-105v78c0 59-74 88-222 88H548c-155 0-233-29-233-86v-80m726 595c0-33-15-62-45-85-27-21-59-31-94-31-37 0-69 10-94 31-28 22-42 51-42 88s13 67 40 89 59 33 96 33c36 0 68-12 97-36 28-24 42-54 42-89m-348 1c0-34-14-62-43-84s-60-33-95-33c-37 0-69 10-95 31-28 22-42 52-42 89s13 66 40 88 59 33 96 33c36 0 68-12 97-36 28-24 42-53 42-88z"
       horiz-adv-x="1477"
       unicode="ë"
       id="glyph3908" /><glyph
       d="M338 3H68v943h270m-17 80H91l-291 343H26z"
       horiz-adv-x="422"
       unicode="ì"
       id="glyph3910" /><glyph
       d="M332 3H62v943h270m257 398-291-343H68l295 343z"
       horiz-adv-x="422"
       unicode="í"
       id="glyph3912" /><glyph
       d="M347 3H77v943h270m184 183-141-123-173 167-166-167-160 108 238 231c26 25 55 38 86 38 32 0 61-13 88-38z"
       horiz-adv-x="422"
       unicode="î"
       id="glyph3914" /><glyph
       d="M351 3H81v943h270m172 282c0-33-15-62-45-85-27-21-59-31-94-31-37 0-69 10-94 31-28 22-42 51-42 88s13 67 40 89 59 33 96 33c36 0 68-12 97-36 28-24 42-54 42-89m-348 1c0-34-14-62-43-84s-60-33-95-33c-37 0-69 10-95 31-28 22-42 52-42 89s13 66 40 88 59 33 96 33c36 0 68-12 97-36 28-24 42-53 42-88z"
       horiz-adv-x="422"
       unicode="ï"
       id="glyph3916" /><glyph
       horiz-adv-x="755"
       unicode="ð"
       id="glyph3918" /><glyph
       d="M1424 3h-273v705c0 30-32 52-97 67-43 10-90 15-139 15H551c-47 0-92-5-133-16-61-15-91-37-91-67V3H56v722c0 202 171 303 514 303h345c339 0 509-100 509-301m-317 389H451v209h656z"
       horiz-adv-x="1482"
       unicode="ñ"
       id="glyph3920" /><glyph
       d="M1418 337c0-119-57-206-170-263-87-43-196-65-328-65H569C437 9 325 31 232 75 111 132 50 220 50 337v353c0 116 60 205 181 266 95 48 208 72 337 72h352c332 0 498-112 498-336m-274-345v349c0 35-30 60-91 76-42 12-88 18-139 18H571c-49 0-98-8-148-24-68-21-102-49-102-86V347c0-35 35-62 105-81 50-13 99-20 146-20h343c41 0 86 8 135 23 63 20 94 46 94 78m-126 670H788l-291 343h226z"
       horiz-adv-x="1505"
       unicode="ò"
       id="glyph3922" /><glyph
       d="M1418 337c0-119-57-206-170-263-87-43-196-65-328-65H569C437 9 325 31 232 75 111 132 50 220 50 337v353c0 116 60 205 181 266 95 48 208 72 337 72h352c332 0 498-112 498-336m-274-345v349c0 35-30 60-91 76-42 12-88 18-139 18H571c-49 0-98-8-148-24-68-21-102-49-102-86V347c0-35 35-62 105-81 50-13 99-20 146-20h343c41 0 86 8 135 23 63 20 94 46 94 78m-105 1003-291-343H518l295 343z"
       horiz-adv-x="1505"
       unicode="ó"
       id="glyph3924" /><glyph
       d="M1428 337c0-119-57-206-170-263-87-43-196-65-328-65H579C447 9 335 31 242 75 121 132 60 220 60 337v353c0 116 60 205 181 266 95 48 208 72 337 72h352c332 0 498-112 498-336m-274-345v349c0 35-30 60-91 76-42 12-88 18-139 18H581c-49 0-98-8-148-24-68-21-102-49-102-86V347c0-35 35-62 105-81 50-13 99-20 146-20h343c41 0 86 8 135 23 63 20 94 46 94 78m-55 786-141-123-173 167-166-167-160 108 238 231c26 25 55 38 86 38 32 0 61-13 88-38z"
       horiz-adv-x="1505"
       unicode="ô"
       id="glyph3926" /><glyph
       d="M1418 337c0-119-57-206-170-263-87-43-196-65-328-65H569C437 9 325 31 232 75 111 132 50 220 50 337v353c0 116 60 205 181 266 95 48 208 72 337 72h352c332 0 498-112 498-336m-274-345v349c0 35-30 60-91 76-42 12-88 18-139 18H571c-49 0-98-8-148-24-68-21-102-49-102-86V347c0-35 35-62 105-81 50-13 99-20 146-20h343c41 0 86 8 135 23 63 20 94 46 94 78m-65 771H423v209h656z"
       horiz-adv-x="1505"
       unicode="õ"
       id="glyph3928" /><glyph
       d="M1408 337c0-119-57-206-170-263-87-43-196-65-328-65H559C427 9 315 31 222 75 101 132 40 220 40 337v353c0 116 60 205 181 266 95 48 208 72 337 72h352c332 0 498-112 498-336m-274-345v349c0 35-30 60-91 76-42 12-88 18-139 18H561c-49 0-98-8-148-24-68-21-102-49-102-86V347c0-35 35-62 105-81 50-13 99-20 146-20h343c41 0 86 8 135 23 63 20 94 46 94 78m-111 875c0-33-15-62-45-85-27-21-59-31-94-31-37 0-69 10-94 31-28 22-42 51-42 88s13 67 40 89 59 33 96 33c36 0 68-12 97-36 28-24 42-54 42-89m-348 1c0-34-14-62-43-84s-60-33-95-33c-37 0-69 10-95 31-28 22-42 52-42 89s13 66 40 88 59 33 96 33c36 0 68-12 97-36 28-24 42-53 42-88z"
       horiz-adv-x="1505"
       unicode="ö"
       id="glyph3930" /><glyph
       d="M754 617H98v229h656m-145 251c0-41-19-74-56-100-33-23-71-35-114-35-45 0-84 11-115 34-35 25-53 60-53 104 0 43 17 78 52 103 32 23 70 35 115 35 43 0 82-12 115-37 37-27 56-62 56-104m0-745c0-41-19-74-56-100-33-23-71-35-114-35-45 0-84 11-115 34-35 25-53 60-53 104 0 43 17 78 52 103 32 23 70 35 115 35 43 0 82-12 115-37 37-27 56-62 56-104z"
       horiz-adv-x="840"
       unicode="÷"
       id="glyph3932" /><glyph
       d="m1486 1028-145-103c67-56 101-134 101-233V337c0-119-57-206-170-263-87-43-196-65-328-65H593C452 9 335 33 240 82l-60-32H-1l145 104c-47 50-70 111-70 183v353c0 116 60 205 181 266 95 48 208 72 337 72h352c115 0 211-14 288-43l59 43m-123-691v369c0 23-13 41-40 54L474 256c40-7 81-10 122-10h343c44 0 88 6 133 18 64 17 96 41 96 73M968 789l-22 1H589c-52 0-101-6-146-19-65-19-98-46-98-81V337c0-9 2-16 6-23z"
       horiz-adv-x="1505"
       unicode="ø"
       id="glyph3934" /><glyph
       d="M1435 325c0-130-63-220-188-269-81-31-198-47-353-47H579C216 9 35 114 35 325v708h271V335c0-59 86-89 259-89h344c168 0 252 29 252 86v701h274m-451-16H754l-291 343h226z"
       horiz-adv-x="1512"
       unicode="ù"
       id="glyph3936" /><glyph
       d="M1435 325c0-130-63-220-188-269-81-31-198-47-353-47H579C216 9 35 114 35 325v708h271V335c0-59 86-89 259-89h344c168 0 252 29 252 86v701h274m-373 332-291-343H541l295 343z"
       horiz-adv-x="1512"
       unicode="ú"
       id="glyph3938" /><glyph
       d="M1435 325c0-130-63-220-188-269-81-31-198-47-353-47H579C216 9 35 114 35 325v708h271V335c0-59 86-89 259-89h344c168 0 252 29 252 86v701h274m-360 106-141-123-173 167-166-167-160 108 238 231c26 25 55 38 86 38 32 0 61-13 88-38z"
       horiz-adv-x="1512"
       unicode="û"
       id="glyph3940" /><glyph
       d="M1435 325c0-130-63-220-188-269-81-31-198-47-353-47H579C216 9 35 114 35 325v708h271V335c0-59 86-89 259-89h344c168 0 252 29 252 86v701h274m-402 189c0-33-15-62-45-85-27-21-59-31-94-31-37 0-69 10-94 31-28 22-42 51-42 88s13 67 40 89 59 33 96 33c36 0 68-12 97-36 28-24 42-54 42-89m-348 1c0-34-14-62-43-84s-60-33-95-33c-37 0-69 10-95 31-28 22-42 52-42 89s13 66 40 88 59 33 96 33c36 0 68-12 97-36 28-24 42-53 42-88z"
       horiz-adv-x="1512"
       unicode="ü"
       id="glyph3942" /><glyph
       d="M1412 54c0-132-69-221-208-268-83-29-207-43-372-43l-186 1v232h282c138 0 209 14 212 41H540C203 17 34 122 34 333v700h271V343c0-60 78-90 235-90h600v780h272m-317 322-291-343H574l295 343z"
       horiz-adv-x="1502"
       unicode="ý"
       id="glyph3944" /><glyph
       horiz-adv-x="755"
       unicode="þ"
       id="glyph3946" /><glyph
       d="M1412 54c0-132-69-221-208-268-83-29-207-43-372-43l-186 1v232h282c138 0 209 14 212 41H540C203 17 34 122 34 333v700h271V343c0-60 78-90 235-90h600v780h272m-382 190c0-33-15-62-45-85-27-21-59-31-94-31-37 0-69 10-94 31-28 22-42 51-42 88s13 67 40 89 59 33 96 33c36 0 68-12 97-36 28-24 42-54 42-89m-348 1c0-34-14-62-43-84s-60-33-95-33c-37 0-69 10-95 31-28 22-42 52-42 89s13 66 40 88 59 33 96 33c36 0 68-12 97-36 28-24 42-53 42-88z"
       horiz-adv-x="1485"
       unicode="ÿ"
       id="glyph3948" /><glyph
       horiz-adv-x="755"
       unicode="Ā"
       id="glyph3950" /><glyph
       horiz-adv-x="755"
       unicode="ā"
       id="glyph3952" /><glyph
       horiz-adv-x="755"
       unicode="Ă"
       id="glyph3954" /><glyph
       horiz-adv-x="755"
       unicode="ă"
       id="glyph3956" /><glyph
       horiz-adv-x="755"
       unicode="Ą"
       id="glyph3958" /><glyph
       horiz-adv-x="755"
       unicode="ą"
       id="glyph3960" /><glyph
       horiz-adv-x="755"
       unicode="Ć"
       id="glyph3962" /><glyph
       horiz-adv-x="755"
       unicode="ć"
       id="glyph3964" /><glyph
       horiz-adv-x="755"
       unicode="Ĉ"
       id="glyph3966" /><glyph
       horiz-adv-x="755"
       unicode="ĉ"
       id="glyph3968" /><glyph
       horiz-adv-x="755"
       unicode="Ċ"
       id="glyph3970" /><glyph
       horiz-adv-x="755"
       unicode="ċ"
       id="glyph3972" /><glyph
       horiz-adv-x="755"
       unicode="Č"
       id="glyph3974" /><glyph
       horiz-adv-x="755"
       unicode="č"
       id="glyph3976" /><glyph
       horiz-adv-x="755"
       unicode="Ď"
       id="glyph3978" /><glyph
       horiz-adv-x="755"
       unicode="ď"
       id="glyph3980" /><glyph
       horiz-adv-x="755"
       unicode="Đ"
       id="glyph3982" /><glyph
       horiz-adv-x="755"
       unicode="đ"
       id="glyph3984" /><glyph
       horiz-adv-x="755"
       unicode="Ē"
       id="glyph3986" /><glyph
       horiz-adv-x="755"
       unicode="ē"
       id="glyph3988" /><glyph
       horiz-adv-x="755"
       unicode="Ĕ"
       id="glyph3990" /><glyph
       horiz-adv-x="755"
       unicode="ĕ"
       id="glyph3992" /><glyph
       horiz-adv-x="755"
       unicode="Ė"
       id="glyph3994" /><glyph
       horiz-adv-x="755"
       unicode="ė"
       id="glyph3996" /><glyph
       horiz-adv-x="755"
       unicode="Ę"
       id="glyph3998" /><glyph
       horiz-adv-x="755"
       unicode="ę"
       id="glyph4000" /><glyph
       horiz-adv-x="755"
       unicode="Ě"
       id="glyph4002" /><glyph
       horiz-adv-x="755"
       unicode="ě"
       id="glyph4004" /><glyph
       horiz-adv-x="755"
       unicode="Ĝ"
       id="glyph4006" /><glyph
       horiz-adv-x="755"
       unicode="ĝ"
       id="glyph4008" /><glyph
       horiz-adv-x="755"
       unicode="Ğ"
       id="glyph4010" /><glyph
       horiz-adv-x="755"
       unicode="ğ"
       id="glyph4012" /><glyph
       horiz-adv-x="755"
       unicode="Ġ"
       id="glyph4014" /><glyph
       horiz-adv-x="755"
       unicode="ġ"
       id="glyph4016" /><glyph
       horiz-adv-x="755"
       unicode="Ģ"
       id="glyph4018" /><glyph
       horiz-adv-x="755"
       unicode="ģ"
       id="glyph4020" /><glyph
       horiz-adv-x="755"
       unicode="Ĥ"
       id="glyph4022" /><glyph
       horiz-adv-x="755"
       unicode="ĥ"
       id="glyph4024" /><glyph
       horiz-adv-x="755"
       unicode="Ħ"
       id="glyph4026" /><glyph
       horiz-adv-x="755"
       unicode="ħ"
       id="glyph4028" /><glyph
       horiz-adv-x="755"
       unicode="Ĩ"
       id="glyph4030" /><glyph
       horiz-adv-x="755"
       unicode="ĩ"
       id="glyph4032" /><glyph
       horiz-adv-x="755"
       unicode="Ī"
       id="glyph4034" /><glyph
       horiz-adv-x="755"
       unicode="ī"
       id="glyph4036" /><glyph
       horiz-adv-x="755"
       unicode="Ĭ"
       id="glyph4038" /><glyph
       horiz-adv-x="755"
       unicode="ĭ"
       id="glyph4040" /><glyph
       horiz-adv-x="755"
       unicode="Į"
       id="glyph4042" /><glyph
       horiz-adv-x="755"
       unicode="į"
       id="glyph4044" /><glyph
       horiz-adv-x="755"
       unicode="İ"
       id="glyph4046" /><glyph
       d="M376 3H106v943h270z"
       horiz-adv-x="456"
       unicode="ı"
       id="glyph4048" /><glyph
       horiz-adv-x="755"
       unicode="Ĳ"
       id="glyph4050" /><glyph
       horiz-adv-x="755"
       unicode="ĳ"
       id="glyph4052" /><glyph
       horiz-adv-x="755"
       unicode="Ĵ"
       id="glyph4054" /><glyph
       horiz-adv-x="755"
       unicode="ĵ"
       id="glyph4056" /><glyph
       horiz-adv-x="755"
       unicode="Ķ"
       id="glyph4058" /><glyph
       horiz-adv-x="755"
       unicode="ķ"
       id="glyph4060" /><glyph
       horiz-adv-x="755"
       unicode="ĸ"
       id="glyph4062" /><glyph
       horiz-adv-x="755"
       unicode="Ĺ"
       id="glyph4064" /><glyph
       horiz-adv-x="755"
       unicode="ĺ"
       id="glyph4066" /><glyph
       horiz-adv-x="755"
       unicode="Ļ"
       id="glyph4068" /><glyph
       horiz-adv-x="755"
       unicode="ļ"
       id="glyph4070" /><glyph
       horiz-adv-x="755"
       unicode="Ľ"
       id="glyph4072" /><glyph
       horiz-adv-x="755"
       unicode="ľ"
       id="glyph4074" /><glyph
       horiz-adv-x="755"
       unicode="Ŀ"
       id="glyph4076" /><glyph
       horiz-adv-x="755"
       unicode="ŀ"
       id="glyph4078" /><glyph
       horiz-adv-x="755"
       unicode="Ł"
       id="glyph4080" /><glyph
       horiz-adv-x="755"
       unicode="ł"
       id="glyph4082" /><glyph
       horiz-adv-x="755"
       unicode="Ń"
       id="glyph4084" /><glyph
       horiz-adv-x="755"
       unicode="ń"
       id="glyph4086" /><glyph
       horiz-adv-x="755"
       unicode="Ņ"
       id="glyph4088" /><glyph
       horiz-adv-x="755"
       unicode="ņ"
       id="glyph4090" /><glyph
       horiz-adv-x="755"
       unicode="Ň"
       id="glyph4092" /><glyph
       horiz-adv-x="755"
       unicode="ň"
       id="glyph4094" /><glyph
       horiz-adv-x="755"
       unicode="ŉ"
       id="glyph4096" /><glyph
       horiz-adv-x="755"
       unicode="Ŋ"
       id="glyph4098" /><glyph
       horiz-adv-x="755"
       unicode="ŋ"
       id="glyph4100" /><glyph
       horiz-adv-x="755"
       unicode="Ō"
       id="glyph4102" /><glyph
       horiz-adv-x="755"
       unicode="ō"
       id="glyph4104" /><glyph
       horiz-adv-x="755"
       unicode="Ŏ"
       id="glyph4106" /><glyph
       horiz-adv-x="755"
       unicode="ŏ"
       id="glyph4108" /><glyph
       horiz-adv-x="755"
       unicode="Ő"
       id="glyph4110" /><glyph
       horiz-adv-x="755"
       unicode="ő"
       id="glyph4112" /><glyph
       d="M1766 1049h-187c-195 0-292-34-292-102V764h479V521h-477V351c0-49 46-80 139-92 27-4 92-6 196-6h142V9h-167c-207 0-359 32-456 96-99-64-257-96-473-96-155 0-283 22-384 65C147 134 77 231 77 365v562c0 240 198 360 593 360 231 0 393-31 484-92 75 48 174 77 297 88 31 3 136 4 315 4M998 371v551c0 83-106 124-319 124s-320-41-320-124V371c0-79 111-119 333-119 204 0 306 40 306 119z"
       horiz-adv-x="1804"
       unicode="Œ"
       id="glyph4114" /><glyph
       d="M1899 385h-757c9-94 108-141 296-141 15 0 34 0 57 1s39 1 47 1h110V9h-174c-232 0-391 29-476 87C910 37 778 7 607 7 474 7 359 29 264 73 139 131 76 219 76 337v353c0 116 60 205 181 266 95 48 208 72 337 72 195 0 334-29 417-87 100 59 237 88 411 88 123 0 226-19 309-58 112-51 168-130 168-238m-266-105v88c0 52-69 78-206 78-195 0-293-29-293-86v-80M860 337v369c0 56-76 84-227 84-191 0-286-33-286-100V337c0-61 82-92 247-92 177 0 266 31 266 92z"
       horiz-adv-x="1952"
       unicode="œ"
       id="glyph4116" /><glyph
       horiz-adv-x="755"
       unicode="Ŕ"
       id="glyph4118" /><glyph
       horiz-adv-x="755"
       unicode="ŕ"
       id="glyph4120" /><glyph
       horiz-adv-x="755"
       unicode="Ŗ"
       id="glyph4122" /><glyph
       horiz-adv-x="755"
       unicode="ŗ"
       id="glyph4124" /><glyph
       horiz-adv-x="755"
       unicode="Ř"
       id="glyph4126" /><glyph
       horiz-adv-x="755"
       unicode="ř"
       id="glyph4128" /><glyph
       horiz-adv-x="755"
       unicode="Ś"
       id="glyph4130" /><glyph
       horiz-adv-x="755"
       unicode="ś"
       id="glyph4132" /><glyph
       horiz-adv-x="755"
       unicode="Ŝ"
       id="glyph4134" /><glyph
       horiz-adv-x="755"
       unicode="ŝ"
       id="glyph4136" /><glyph
       horiz-adv-x="755"
       unicode="Ş"
       id="glyph4138" /><glyph
       horiz-adv-x="755"
       unicode="ş"
       id="glyph4140" /><glyph
       horiz-adv-x="755"
       unicode="Š"
       id="glyph4142" /><glyph
       horiz-adv-x="755"
       unicode="š"
       id="glyph4144" /><glyph
       horiz-adv-x="755"
       unicode="Ţ"
       id="glyph4146" /><glyph
       horiz-adv-x="755"
       unicode="ţ"
       id="glyph4148" /><glyph
       horiz-adv-x="755"
       unicode="Ť"
       id="glyph4150" /><glyph
       horiz-adv-x="755"
       unicode="ť"
       id="glyph4152" /><glyph
       horiz-adv-x="755"
       unicode="Ŧ"
       id="glyph4154" /><glyph
       horiz-adv-x="755"
       unicode="ŧ"
       id="glyph4156" /><glyph
       horiz-adv-x="755"
       unicode="Ũ"
       id="glyph4158" /><glyph
       horiz-adv-x="755"
       unicode="ũ"
       id="glyph4160" /><glyph
       horiz-adv-x="755"
       unicode="Ū"
       id="glyph4162" /><glyph
       horiz-adv-x="755"
       unicode="ū"
       id="glyph4164" /><glyph
       horiz-adv-x="755"
       unicode="Ŭ"
       id="glyph4166" /><glyph
       horiz-adv-x="755"
       unicode="ŭ"
       id="glyph4168" /><glyph
       horiz-adv-x="755"
       unicode="Ů"
       id="glyph4170" /><glyph
       horiz-adv-x="755"
       unicode="ů"
       id="glyph4172" /><glyph
       horiz-adv-x="755"
       unicode="Ű"
       id="glyph4174" /><glyph
       horiz-adv-x="755"
       unicode="ű"
       id="glyph4176" /><glyph
       horiz-adv-x="755"
       unicode="Ų"
       id="glyph4178" /><glyph
       horiz-adv-x="755"
       unicode="ų"
       id="glyph4180" /><glyph
       horiz-adv-x="755"
       unicode="Ŵ"
       id="glyph4182" /><glyph
       horiz-adv-x="755"
       unicode="ŵ"
       id="glyph4184" /><glyph
       horiz-adv-x="755"
       unicode="Ŷ"
       id="glyph4186" /><glyph
       horiz-adv-x="755"
       unicode="ŷ"
       id="glyph4188" /><glyph
       d="m1818 1301-795-766V3H742v532l-802 766h383l559-536 564 536m-278 207c0-33-15-62-45-85-27-21-59-31-94-31-37 0-69 10-94 31-28 22-42 51-42 88s13 67 40 89 59 33 96 33c36 0 68-12 97-36 28-24 42-54 42-89m-348 1c0-34-14-62-43-84s-60-33-95-33c-37 0-69 10-95 31-28 22-42 52-42 89s13 66 40 88 59 33 96 33c36 0 68-12 97-36 28-24 42-53 42-88z"
       horiz-adv-x="1740"
       unicode="Ÿ"
       id="glyph4190" /><glyph
       horiz-adv-x="755"
       unicode="Ź"
       id="glyph4192" /><glyph
       horiz-adv-x="755"
       unicode="ź"
       id="glyph4194" /><glyph
       horiz-adv-x="755"
       unicode="Ż"
       id="glyph4196" /><glyph
       horiz-adv-x="755"
       unicode="ż"
       id="glyph4198" /><glyph
       horiz-adv-x="755"
       unicode="Ž"
       id="glyph4200" /><glyph
       horiz-adv-x="755"
       unicode="ž"
       id="glyph4202" /><glyph
       horiz-adv-x="755"
       unicode="ſ"
       id="glyph4204" /><glyph
       horiz-adv-x="755"
       unicode="ƒ"
       id="glyph4206" /><glyph
       horiz-adv-x="755"
       unicode="Ǻ"
       id="glyph4208" /><glyph
       horiz-adv-x="755"
       unicode="ǻ"
       id="glyph4210" /><glyph
       horiz-adv-x="755"
       unicode="Ǽ"
       id="glyph4212" /><glyph
       horiz-adv-x="755"
       unicode="ǽ"
       id="glyph4214" /><glyph
       horiz-adv-x="755"
       unicode="Ǿ"
       id="glyph4216" /><glyph
       horiz-adv-x="755"
       unicode="ǿ"
       id="glyph4218" /><glyph
       d="M928 1117 787 994l-173 167-166-167-160 108 238 231c26 25 55 38 86 38 32 0 61-13 88-38z"
       horiz-adv-x="962"
       unicode="ˆ"
       id="glyph4220" /><glyph
       horiz-adv-x="755"
       unicode="ˇ"
       id="glyph4222" /><glyph
       horiz-adv-x="755"
       unicode="ˉ"
       id="glyph4224" /><glyph
       horiz-adv-x="755"
       unicode="˘"
       id="glyph4226" /><glyph
       horiz-adv-x="755"
       unicode="˙"
       id="glyph4228" /><glyph
       d="M436 1209c0-48-18-88-55-121s-79-49-128-49c-52 0-95 16-129 49-34 32-51 74-51 125s17 93 51 125c34 31 77 47 129 47 49 0 92-17 129-51 36-34 54-76 54-125m-108 4c0 20-7 37-22 50s-33 19-54 19c-50 0-75-23-75-69s25-69 75-69c51 0 76 23 76 69z"
       horiz-adv-x="514"
       unicode="˚"
       id="glyph4230" /><glyph
       horiz-adv-x="755"
       unicode="˛"
       id="glyph4232" /><glyph
       d="M976 1074H320v209h656z"
       horiz-adv-x="1172"
       unicode="˜"
       id="glyph4234" /><glyph
       horiz-adv-x="755"
       unicode="˝"
       id="glyph4236" /><glyph
       horiz-adv-x="755"
       unicode="΄"
       id="glyph4238" /><glyph
       horiz-adv-x="755"
       unicode="΅"
       id="glyph4240" /><glyph
       horiz-adv-x="755"
       unicode="Ά"
       id="glyph4242" /><glyph
       horiz-adv-x="755"
       unicode="·"
       id="glyph4244" /><glyph
       horiz-adv-x="755"
       unicode="Έ"
       id="glyph4246" /><glyph
       horiz-adv-x="755"
       unicode="Ή"
       id="glyph4248" /><glyph
       horiz-adv-x="755"
       unicode="Ί"
       id="glyph4250" /><glyph
       horiz-adv-x="755"
       unicode="Ό"
       id="glyph4252" /><glyph
       horiz-adv-x="755"
       unicode="Ύ"
       id="glyph4254" /><glyph
       horiz-adv-x="755"
       unicode="Ώ"
       id="glyph4256" /><glyph
       horiz-adv-x="755"
       unicode="ΐ"
       id="glyph4258" /><glyph
       horiz-adv-x="755"
       unicode="Α"
       id="glyph4260" /><glyph
       horiz-adv-x="755"
       unicode="Β"
       id="glyph4262" /><glyph
       horiz-adv-x="755"
       unicode="Γ"
       id="glyph4264" /><glyph
       horiz-adv-x="755"
       unicode="∆"
       id="glyph4266" /><glyph
       horiz-adv-x="755"
       unicode="Ε"
       id="glyph4268" /><glyph
       horiz-adv-x="755"
       unicode="Ζ"
       id="glyph4270" /><glyph
       horiz-adv-x="755"
       unicode="Η"
       id="glyph4272" /><glyph
       horiz-adv-x="755"
       unicode="Θ"
       id="glyph4274" /><glyph
       horiz-adv-x="755"
       unicode="Ι"
       id="glyph4276" /><glyph
       horiz-adv-x="755"
       unicode="Κ"
       id="glyph4278" /><glyph
       horiz-adv-x="755"
       unicode="Λ"
       id="glyph4280" /><glyph
       horiz-adv-x="755"
       unicode="Μ"
       id="glyph4282" /><glyph
       horiz-adv-x="755"
       unicode="Ν"
       id="glyph4284" /><glyph
       horiz-adv-x="755"
       unicode="Ξ"
       id="glyph4286" /><glyph
       horiz-adv-x="755"
       unicode="Ο"
       id="glyph4288" /><glyph
       horiz-adv-x="755"
       unicode="Π"
       id="glyph4290" /><glyph
       horiz-adv-x="755"
       unicode="Ρ"
       id="glyph4292" /><glyph
       horiz-adv-x="755"
       unicode="Σ"
       id="glyph4294" /><glyph
       horiz-adv-x="755"
       unicode="Τ"
       id="glyph4296" /><glyph
       horiz-adv-x="755"
       unicode="Υ"
       id="glyph4298" /><glyph
       horiz-adv-x="755"
       unicode="Φ"
       id="glyph4300" /><glyph
       horiz-adv-x="755"
       unicode="Χ"
       id="glyph4302" /><glyph
       horiz-adv-x="755"
       unicode="Ψ"
       id="glyph4304" /><glyph
       horiz-adv-x="755"
       unicode="Ω"
       id="glyph4306" /><glyph
       horiz-adv-x="755"
       unicode="Ϊ"
       id="glyph4308" /><glyph
       horiz-adv-x="755"
       unicode="Ϋ"
       id="glyph4310" /><glyph
       horiz-adv-x="755"
       unicode="ά"
       id="glyph4312" /><glyph
       horiz-adv-x="755"
       unicode="έ"
       id="glyph4314" /><glyph
       horiz-adv-x="755"
       unicode="ή"
       id="glyph4316" /><glyph
       horiz-adv-x="755"
       unicode="ί"
       id="glyph4318" /><glyph
       horiz-adv-x="755"
       unicode="ΰ"
       id="glyph4320" /><glyph
       horiz-adv-x="755"
       unicode="α"
       id="glyph4322" /><glyph
       horiz-adv-x="755"
       unicode="β"
       id="glyph4324" /><glyph
       horiz-adv-x="755"
       unicode="γ"
       id="glyph4326" /><glyph
       horiz-adv-x="755"
       unicode="δ"
       id="glyph4328" /><glyph
       horiz-adv-x="755"
       unicode="ε"
       id="glyph4330" /><glyph
       horiz-adv-x="755"
       unicode="ζ"
       id="glyph4332" /><glyph
       horiz-adv-x="755"
       unicode="η"
       id="glyph4334" /><glyph
       horiz-adv-x="755"
       unicode="θ"
       id="glyph4336" /><glyph
       horiz-adv-x="755"
       unicode="ι"
       id="glyph4338" /><glyph
       horiz-adv-x="755"
       unicode="κ"
       id="glyph4340" /><glyph
       horiz-adv-x="755"
       unicode="λ"
       id="glyph4342" /><glyph
       horiz-adv-x="755"
       unicode="μ"
       id="glyph4344" /><glyph
       horiz-adv-x="755"
       unicode="ν"
       id="glyph4346" /><glyph
       horiz-adv-x="755"
       unicode="ξ"
       id="glyph4348" /><glyph
       horiz-adv-x="755"
       unicode="ο"
       id="glyph4350" /><glyph
       horiz-adv-x="755"
       unicode="π"
       id="glyph4352" /><glyph
       horiz-adv-x="755"
       unicode="ρ"
       id="glyph4354" /><glyph
       horiz-adv-x="755"
       unicode="ς"
       id="glyph4356" /><glyph
       horiz-adv-x="755"
       unicode="σ"
       id="glyph4358" /><glyph
       horiz-adv-x="755"
       unicode="τ"
       id="glyph4360" /><glyph
       horiz-adv-x="755"
       unicode="υ"
       id="glyph4362" /><glyph
       horiz-adv-x="755"
       unicode="φ"
       id="glyph4364" /><glyph
       horiz-adv-x="755"
       unicode="χ"
       id="glyph4366" /><glyph
       horiz-adv-x="755"
       unicode="ψ"
       id="glyph4368" /><glyph
       horiz-adv-x="755"
       unicode="ω"
       id="glyph4370" /><glyph
       horiz-adv-x="755"
       unicode="ϊ"
       id="glyph4372" /><glyph
       horiz-adv-x="755"
       unicode="ϋ"
       id="glyph4374" /><glyph
       horiz-adv-x="755"
       unicode="ό"
       id="glyph4376" /><glyph
       horiz-adv-x="755"
       unicode="ύ"
       id="glyph4378" /><glyph
       horiz-adv-x="755"
       unicode="ώ"
       id="glyph4380" /><glyph
       horiz-adv-x="755"
       unicode="Ё"
       id="glyph4382" /><glyph
       horiz-adv-x="755"
       unicode="Ђ"
       id="glyph4384" /><glyph
       horiz-adv-x="755"
       unicode="Ѓ"
       id="glyph4386" /><glyph
       horiz-adv-x="755"
       unicode="Є"
       id="glyph4388" /><glyph
       horiz-adv-x="755"
       unicode="Ѕ"
       id="glyph4390" /><glyph
       horiz-adv-x="755"
       unicode="І"
       id="glyph4392" /><glyph
       horiz-adv-x="755"
       unicode="Ї"
       id="glyph4394" /><glyph
       horiz-adv-x="755"
       unicode="Ј"
       id="glyph4396" /><glyph
       horiz-adv-x="755"
       unicode="Љ"
       id="glyph4398" /><glyph
       horiz-adv-x="755"
       unicode="Њ"
       id="glyph4400" /><glyph
       horiz-adv-x="755"
       unicode="Ћ"
       id="glyph4402" /><glyph
       horiz-adv-x="755"
       unicode="Ќ"
       id="glyph4404" /><glyph
       horiz-adv-x="755"
       unicode="Ў"
       id="glyph4406" /><glyph
       horiz-adv-x="755"
       unicode="Џ"
       id="glyph4408" /><glyph
       horiz-adv-x="755"
       unicode="А"
       id="glyph4410" /><glyph
       horiz-adv-x="755"
       unicode="Б"
       id="glyph4412" /><glyph
       horiz-adv-x="755"
       unicode="В"
       id="glyph4414" /><glyph
       horiz-adv-x="755"
       unicode="Г"
       id="glyph4416" /><glyph
       horiz-adv-x="755"
       unicode="Д"
       id="glyph4418" /><glyph
       horiz-adv-x="755"
       unicode="Е"
       id="glyph4420" /><glyph
       horiz-adv-x="755"
       unicode="Ж"
       id="glyph4422" /><glyph
       horiz-adv-x="755"
       unicode="З"
       id="glyph4424" /><glyph
       horiz-adv-x="755"
       unicode="И"
       id="glyph4426" /><glyph
       horiz-adv-x="755"
       unicode="Й"
       id="glyph4428" /><glyph
       horiz-adv-x="755"
       unicode="К"
       id="glyph4430" /><glyph
       horiz-adv-x="755"
       unicode="Л"
       id="glyph4432" /><glyph
       horiz-adv-x="755"
       unicode="М"
       id="glyph4434" /><glyph
       horiz-adv-x="755"
       unicode="Н"
       id="glyph4436" /><glyph
       horiz-adv-x="755"
       unicode="О"
       id="glyph4438" /><glyph
       horiz-adv-x="755"
       unicode="П"
       id="glyph4440" /><glyph
       horiz-adv-x="755"
       unicode="Р"
       id="glyph4442" /><glyph
       horiz-adv-x="755"
       unicode="С"
       id="glyph4444" /><glyph
       horiz-adv-x="755"
       unicode="Т"
       id="glyph4446" /><glyph
       horiz-adv-x="755"
       unicode="У"
       id="glyph4448" /><glyph
       horiz-adv-x="755"
       unicode="Ф"
       id="glyph4450" /><glyph
       horiz-adv-x="755"
       unicode="Х"
       id="glyph4452" /><glyph
       horiz-adv-x="755"
       unicode="Ц"
       id="glyph4454" /><glyph
       horiz-adv-x="755"
       unicode="Ч"
       id="glyph4456" /><glyph
       horiz-adv-x="755"
       unicode="Ш"
       id="glyph4458" /><glyph
       horiz-adv-x="755"
       unicode="Щ"
       id="glyph4460" /><glyph
       horiz-adv-x="755"
       unicode="Ъ"
       id="glyph4462" /><glyph
       horiz-adv-x="755"
       unicode="Ы"
       id="glyph4464" /><glyph
       horiz-adv-x="755"
       unicode="Ь"
       id="glyph4466" /><glyph
       horiz-adv-x="755"
       unicode="Э"
       id="glyph4468" /><glyph
       horiz-adv-x="755"
       unicode="Ю"
       id="glyph4470" /><glyph
       horiz-adv-x="755"
       unicode="Я"
       id="glyph4472" /><glyph
       horiz-adv-x="755"
       unicode="а"
       id="glyph4474" /><glyph
       horiz-adv-x="755"
       unicode="б"
       id="glyph4476" /><glyph
       horiz-adv-x="755"
       unicode="в"
       id="glyph4478" /><glyph
       horiz-adv-x="755"
       unicode="г"
       id="glyph4480" /><glyph
       horiz-adv-x="755"
       unicode="д"
       id="glyph4482" /><glyph
       horiz-adv-x="755"
       unicode="е"
       id="glyph4484" /><glyph
       horiz-adv-x="755"
       unicode="ж"
       id="glyph4486" /><glyph
       horiz-adv-x="755"
       unicode="з"
       id="glyph4488" /><glyph
       horiz-adv-x="755"
       unicode="и"
       id="glyph4490" /><glyph
       horiz-adv-x="755"
       unicode="й"
       id="glyph4492" /><glyph
       horiz-adv-x="755"
       unicode="к"
       id="glyph4494" /><glyph
       horiz-adv-x="755"
       unicode="л"
       id="glyph4496" /><glyph
       horiz-adv-x="755"
       unicode="м"
       id="glyph4498" /><glyph
       horiz-adv-x="755"
       unicode="н"
       id="glyph4500" /><glyph
       horiz-adv-x="755"
       unicode="о"
       id="glyph4502" /><glyph
       horiz-adv-x="755"
       unicode="п"
       id="glyph4504" /><glyph
       horiz-adv-x="755"
       unicode="р"
       id="glyph4506" /><glyph
       horiz-adv-x="755"
       unicode="с"
       id="glyph4508" /><glyph
       horiz-adv-x="755"
       unicode="т"
       id="glyph4510" /><glyph
       horiz-adv-x="755"
       unicode="у"
       id="glyph4512" /><glyph
       horiz-adv-x="755"
       unicode="ф"
       id="glyph4514" /><glyph
       horiz-adv-x="755"
       unicode="х"
       id="glyph4516" /><glyph
       horiz-adv-x="755"
       unicode="ц"
       id="glyph4518" /><glyph
       horiz-adv-x="755"
       unicode="ч"
       id="glyph4520" /><glyph
       horiz-adv-x="755"
       unicode="ш"
       id="glyph4522" /><glyph
       horiz-adv-x="755"
       unicode="щ"
       id="glyph4524" /><glyph
       horiz-adv-x="755"
       unicode="ъ"
       id="glyph4526" /><glyph
       horiz-adv-x="755"
       unicode="ы"
       id="glyph4528" /><glyph
       horiz-adv-x="755"
       unicode="ь"
       id="glyph4530" /><glyph
       horiz-adv-x="755"
       unicode="э"
       id="glyph4532" /><glyph
       horiz-adv-x="755"
       unicode="ю"
       id="glyph4534" /><glyph
       horiz-adv-x="755"
       unicode="я"
       id="glyph4536" /><glyph
       horiz-adv-x="755"
       unicode="ё"
       id="glyph4538" /><glyph
       horiz-adv-x="755"
       unicode="ђ"
       id="glyph4540" /><glyph
       horiz-adv-x="755"
       unicode="ѓ"
       id="glyph4542" /><glyph
       horiz-adv-x="755"
       unicode="є"
       id="glyph4544" /><glyph
       horiz-adv-x="755"
       unicode="ѕ"
       id="glyph4546" /><glyph
       horiz-adv-x="755"
       unicode="і"
       id="glyph4548" /><glyph
       horiz-adv-x="755"
       unicode="ї"
       id="glyph4550" /><glyph
       horiz-adv-x="755"
       unicode="ј"
       id="glyph4552" /><glyph
       horiz-adv-x="755"
       unicode="љ"
       id="glyph4554" /><glyph
       horiz-adv-x="755"
       unicode="њ"
       id="glyph4556" /><glyph
       horiz-adv-x="755"
       unicode="ћ"
       id="glyph4558" /><glyph
       horiz-adv-x="755"
       unicode="ќ"
       id="glyph4560" /><glyph
       horiz-adv-x="755"
       unicode="ў"
       id="glyph4562" /><glyph
       horiz-adv-x="755"
       unicode="џ"
       id="glyph4564" /><glyph
       horiz-adv-x="755"
       unicode="Ґ"
       id="glyph4566" /><glyph
       horiz-adv-x="755"
       unicode="ґ"
       id="glyph4568" /><glyph
       horiz-adv-x="755"
       unicode="Ẁ"
       id="glyph4570" /><glyph
       horiz-adv-x="755"
       unicode="ẁ"
       id="glyph4572" /><glyph
       horiz-adv-x="755"
       unicode="Ẃ"
       id="glyph4574" /><glyph
       horiz-adv-x="755"
       unicode="ẃ"
       id="glyph4576" /><glyph
       horiz-adv-x="755"
       unicode="Ẅ"
       id="glyph4578" /><glyph
       horiz-adv-x="755"
       unicode="ẅ"
       id="glyph4580" /><glyph
       horiz-adv-x="755"
       unicode="Ỳ"
       id="glyph4582" /><glyph
       horiz-adv-x="755"
       unicode="ỳ"
       id="glyph4584" /><glyph
       horiz-adv-x="755"
       unicode="–"
       id="glyph4586" /><glyph
       horiz-adv-x="755"
       unicode="—"
       id="glyph4588" /><glyph
       horiz-adv-x="755"
       unicode="―"
       id="glyph4590" /><glyph
       horiz-adv-x="755"
       unicode="‗"
       id="glyph4592" /><glyph
       d="m72 1273 104-507h242l-62 507z"
       horiz-adv-x="463"
       unicode="‘"
       id="glyph4594" /><glyph
       d="M417 1273 314 766H71l63 507z"
       horiz-adv-x="463"
       unicode="’"
       id="glyph4596" /><glyph
       horiz-adv-x="755"
       unicode="‚"
       id="glyph4598" /><glyph
       horiz-adv-x="755"
       unicode="‛"
       id="glyph4600" /><glyph
       d="m23 1273 104-507h242l-63 507m77 0 104-507h242l-63 507z"
       horiz-adv-x="779"
       unicode="“"
       id="glyph4602" /><glyph
       d="M747 1273 644 766H401l63 507m-77 0L284 766H41l63 507z"
       horiz-adv-x="779"
       unicode="”"
       id="glyph4604" /><glyph
       horiz-adv-x="755"
       unicode="„"
       id="glyph4606" /><glyph
       horiz-adv-x="755"
       unicode="†"
       id="glyph4608" /><glyph
       horiz-adv-x="755"
       unicode="‡"
       id="glyph4610" /><glyph
       d="M1571 1233c0-24-4-48-11-72l-44 12c6 21 9 41 9 60 0 75-36 130-109 165l20 42c90-44 135-113 135-207m-106-47c0-19-2-39-7-59l-45 11c4 17 6 33 6 48 0 59-25 102-75 129l22 40c66-36 99-92 99-169m151-436c0-95-53-186-158-273-101-83-200-125-297-125-52 0-102 10-150 31l-13-13 192-192-32-32-193 192-52-51V134h-46v151l-82 55-132-191-38 26 132 190-21 15c-127-61-310-91-551-90H46l125 169L46 644h97c1 42 5 81 11 118C86 818 52 879 52 944c0 30 11 56 32 77s47 32 77 32c43 0 86-19 131-58l45 21c-10 44-15 74-15 91 0 63 23 95 69 95 51 0 81-53 91-159l61 4c18 119 51 178 98 178 51 0 77-33 77-99 0-24-3-51-10-81 20 73 54 137 103 192 57 66 120 99 187 99 40 0 78-23 114-70 33 25 66 38 99 38 51 0 90-20 118-59 25-35 37-78 37-131 0-61-16-121-47-180h26c181 2 271-59 271-184m-47 3c0 83-64 128-193 135l185-187c5 18 8 35 8 52m-248 366c0 93-37 139-110 139-45 0-94-34-147-103-38-49-71-105-98-166 5-17 8-35 8-54 0-44-13-83-40-117l2-61c101 1 190 36 266 105 79 71 119 157 119 257m-244 116c-27 37-54 55-79 55-60 0-112-30-156-89-18-25-47-80-88-166l18-7c29 17 58 25 85 25s51-9 72-27c29 51 52 87 67 110 27 39 54 72 81 99m434-636-250 252c-31-35-68-64-109-87l263-264c37 30 69 63 96 99m-189-159-281 283c-33-7-67-11-103-12 0-27-2-52-5-74l238-239c48 1 98 15 151 42M925 936c0 20-7 38-22 53s-33 22-52 22c-39 0-78-22-117-67s-59-86-59-125c0-43 21-64 63-64 37 0 78 21 122 63 43 41 65 81 65 118m-36-171c-41-35-91-53-149-53-75 0-113 35-113 105 0 63 33 122 98 178-16 3-41 5-74 6 15 67 22 109 22 127 0 34-9 51-26 51-24 0-46-60-65-179-49-1-94-5-137-10-13 111-31 166-54 166-15 0-23-14-23-43 0-1 7-45 22-132-27-5-49-12-64-19 43-49 64-98 64-145 0-30-10-56-31-77-21-22-47-33-77-33-27 0-56 9-86 26-4-29-6-58-7-89 113 0 182-3 207-8 42-9 69-33 80-72 9-30 13-98 13-205 269 43 403 155 403 336 0 7-1 30-3 70m79-359c-39 23-70 53-95 88-24-31-58-61-102-90 26-15 63-41 111-77 38 33 67 60 86 79M344 818c0 39-21 81-62 124s-81 65-120 65c-41 0-62-22-62-65 0-42 20-84 60-125 40-42 81-63 123-63 41 0 61 21 61 64m11-220h-87l43-61m132-185v146c0 35-14 62-43 83l-89-122 82-112M217 598h-88l43-61m137-78-67 96-70-96 70-95m102-29-33 45-32-46m-74 3-33 45-32-46m1110 675-109-7-115-116 95 135-8 120 27-100 100 113-81-127m-303-97c0-17-14-40-43-68s-52-42-69-42c-9 0-14 4-14 13 0 17 14 39 43 68 29 28 52 42 69 42 9 0 14-4 14-13M297 832c0-7-5-11-15-11-18 0-43 14-74 42-31 27-47 50-47 68 0 9 5 14 14 14 16 0 40-15 73-45s49-53 49-68z"
       horiz-adv-x="1655"
       unicode="•"
       id="glyph4612" /><glyph
       d="M387 145c0-41-19-74-56-100-33-23-71-35-114-35-45 0-84 11-115 34-35 25-53 60-53 104 0 43 17 78 52 103 32 23 70 35 115 35 43 0 82-12 115-37 37-27 56-62 56-104m380 0c0-41-19-74-56-100-33-23-71-35-114-35-45 0-84 11-115 34-35 25-53 60-53 104 0 43 17 78 52 103 32 23 70 35 115 35 43 0 82-12 115-37 37-27 56-62 56-104m380 0c0-41-19-74-56-100-33-23-71-35-114-35-45 0-84 11-115 34-35 25-53 60-53 104 0 43 17 78 52 103 32 23 70 35 115 35 43 0 82-12 115-37 37-27 56-62 56-104z"
       horiz-adv-x="1208"
       unicode="…"
       id="glyph4614" /></font>
</defs>
</svg>
